<?xml version="1.0" standalone="no"?>
<!DOCTYPE svg PUBLIC "-//W3C//DTD SVG 1.1//EN" "http://www.w3.org/Graphics/SVG/1.1/DTD/svg11.dtd" >
<svg xmlns="http://www.w3.org/2000/svg">
<metadata>
Created by FontPrep 20130207 at Wed Apr  1 17:06:29 2015
 By Anton McConville
copyright missing
</metadata>
<defs>
<font id="04b530a8db6e0f4a0fdb83697b7ace5f" horiz-adv-x='1024' >
  <font-face 
    font-family="OrionIconFont-Regular"
    font-weight="400"
    font-stretch="normal"
    units-per-em="2048"
    panose-1="0 0 5 0 0 0 0 0 0 0"
    ascent="1664"
    descent="-384"
    bbox="-6.26087 -424 2076 1666"
    underline-thickness="100"
    underline-position="-100"
    unicode-range="U+E000-E067"
  />
<missing-glyph horiz-adv-x="1000" 
d="M100 1210v-1020l340 510zM160 100h680l-340 510zM560 700l340 -510v1020zM500 790l340 510h-680zM0 0v1400h1000v-1400h-1000z" />
    <glyph glyph-name=".notdef" horiz-adv-x="1000" 
d="M100 1210v-1020l340 510zM160 100h680l-340 510zM560 700l340 -510v1020zM500 790l340 510h-680zM0 0v1400h1000v-1400h-1000z" />
    <glyph glyph-name=".null" horiz-adv-x="0" 
 />
    <glyph glyph-name="nonmarkingreturn" horiz-adv-x="682" 
 />
    <glyph glyph-name="uniE000" unicode="&#xe000;" 
d="M128 -128v256h1792v-256h-1792zM128 512v256h1792v-256h-1792zM128 1152v256h1792v-256h-1792z" />
    <glyph glyph-name="uniE001" unicode="&#xe001;" 
d="M1044 262q160 0 272 113t112 271t-112 271t-272 113t-272 -113t-112 -271t112 -271t272 -113zM2048 768v-256h-376q-13 -82 -27 -111q-15 -29 -23 -44q-7 -15 -46 -67l280 -278l-184 -182l-286 282q-4 -4 -20 -14t-21 -14t-20 -12t-22 -12t-22 -11t-27 -10t-33 -10
t-69 -11v-402h-256v402q0 6 -93 40t-121 54l-272 -282l-180 180l280 280q-6 10 -24 36q-26 38 -43 75t-25 111h-418v256h418q11 87 29 123q19 35 23 43t20 31t20 31l-282 282l178 182l276 -282q28 20 121 54t93 40v392h256v-392q24 -2 45 -7t36 -8t33 -11t26 -10
q13 -3 47 -26l24 -16q21 -14 23 -16l292 282l182 -182l-282 -282q4 -8 20 -31t21 -31t16 -29t15 -37t11 -42t11 -58h376z" />
    <glyph glyph-name="uniE003" unicode="&#xe003;" 
d="M1024 664q-186 0 -317 131t-131 317t131 317t317 131t317 -131t131 -317t-131 -317t-317 -131zM726 316h596q272 0 435 -141t163 -457h-1792q0 316 163 457t435 141z" />
    <glyph glyph-name="uniE004" unicode="&#xe004;" 
d="M2046 1050q0 -254 -179 -434t-435 -180q-124 0 -234 46l-858 -858q-18 -18 -42 6l-282 282q-22 22 -6 40l856 856q-50 116 -50 242q0 254 180 435t436 181q102 0 212 -40l-264 -266q-38 -38 -38 -90t38 -90l180 -182q38 -38 91 -38t91 38l264 266q40 -102 40 -214z" />
    <glyph glyph-name="uniE005" unicode="&#xe005;" 
d="M1152 512h512v256h-512v512h-256v-512h-512v-256h512v-512h256v512zM0 -384v2048h2048v-2048h-2048z" />
    <glyph glyph-name="uniE006" unicode="&#xe006;" 
d="M1606 1116l-236 -866h460zM454 1108l-236 -866h460zM1930 1122h-188l306 -898q0 -196 -131 -334t-317 -138t-317 138t-131 334l306 898h-870l308 -906q0 -196 -131 -334t-317 -138t-317 138t-131 334l310 906h-172v168h228l82 238l82 -238h986l84 246l84 -246h246v-168z
" />
    <glyph glyph-name="uniE007" unicode="&#xe007;" 
d="M665 1310q-123 0 -210 -87t-87 -209t87 -209t210 -87t209 87t86 209t-86 209t-209 87zM0 1664h892l1156 -1156l-892 -892l-1156 1156l4 450z" />
    <glyph glyph-name="uniE008" unicode="&#xe008;" 
d="M1510 1480l-178 -176l356 -356l176 178zM468 472l-198 -586l586 198zM1516 1664l532 -532l-1244 -1246l-804 -270l272 804z" />
    <glyph glyph-name="uniE009" unicode="&#xe009;" 
d="M1320 240h230q56 0 97 -41t41 -99v-280q0 -58 -40 -99t-98 -41h-650q-58 0 -99 41t-41 99v942h-418l686 838l710 -838h-418v-522z" />
    <glyph glyph-name="uniE00A" unicode="&#xe00a;" 
d="M384 1408v-1536h1280v1024h-512v512h-768zM1792 -256h-1536v1792h916l502 -506l118 -128v-1158z" />
    <glyph glyph-name="uniE00B" unicode="&#xe00b;" 
d="M512 896v128h512v-128h-512zM512 128v128h1024v-128h-1024zM512 512v128h1024v-128h-1024zM384 1408v-1536h1280v1024h-512v512h-768zM1792 -256h-1536v1792h916l502 -506l118 -128v-1158z" />
    <glyph glyph-name="uniE00C" unicode="&#xe00c;" 
d="M811 186q173 0 173 127q0 61 -30 90t-100 43l-54 12q-104 24 -152 72q-46 50 -46 139t67 149t168 60t201 -40v-102q-94 60 -174 60t-123 -34t-43 -87t27 -78t103 -43l52 -12q106 -24 154 -77t48 -152t-65 -154t-178 -55t-227 44v108q108 -70 199 -70zM384 -128h1280v1024
h-512v512h-768v-1536zM1792 -256h-1536v1792h916l124 -138l378 -392l118 -128v-1134z" />
    <glyph glyph-name="uniE00D" unicode="&#xe00d;" 
d="M888 412v418h-190v86h292v-504q0 -140 -53 -199t-164 -59t-207 46v118q86 -82 194 -82q72 0 100 36t28 140zM384 -128h1280v1024h-512v512h-768v-1536zM1792 -256h-1536v1792h896l128 -108l384 -362l128 -128v-1194z" />
    <glyph glyph-name="uniE00E" unicode="&#xe00e;" 
d="M1152 768v-128h-116l-12 -18v-110h-70l-74 -116l84 -140h60v-100l18 -28h110v-128h-142l-72 128h-42v74l-68 120l-60 -98v-96h-60l-68 -112v-16h-128v128h90l38 60v68h42l90 140l-72 116h-60v96l-20 32h-108v128h152l62 -128h42v-72l60 -102l68 114v60h36l62 128h158z
M384 -128h1280v1024h-512v512h-768v-1536zM1792 -256h-1536v1792h896l640 -640v-1152z" />
    <glyph glyph-name="uniE00F" unicode="&#xe00f;" 
d="M588 432l310 -242v-140l-384 320v126l384 322v-140zM1410 496v-126l-384 -320v140l308 242l-308 246v140zM384 -128h1280v1024h-512v512h-768v-1536zM1792 -256h-1536v1792h898l128 -104l382 -358l128 -128v-1202z" />
    <glyph glyph-name="uniE010" unicode="&#xe010;" 
d="M240 0h1568v896h-1568v-896zM1920 1152v-1280h-1792v1536h914l244 -256h634z" />
    <glyph glyph-name="uniE011" unicode="&#xe011;" 
d="M1152 128h-256v384h-384v256h384v384h256v-384h384v-256h-384v-384zM256 -128h1536v1536h-1536v-1536zM128 -256v1792h1792v-1792h-1792z" />
    <glyph glyph-name="uniE012" unicode="&#xe012;" 
d="M512 768h1024v-256h-1024v256zM256 -128h1536v1536h-1536v-1536zM128 -256v1792h1792v-1792h-1792z" />
    <glyph glyph-name="uniE013" unicode="&#xe013;" 
d="M770 710l-386 6l646 822l78 -108l556 -720l-374 6l-2 -786q0 -52 -27 -91t-87 -65t-122 -26l-28 -2q-164 0 -234 97q-28 39 -28 91z" />
    <glyph glyph-name="uniE014" unicode="&#xe014;" 
d="M770 570l-8 776q0 52 28 91q45 63 143 85q54 12 91 12l28 -2q63 0 122 -26q114 -50 114 -156l2 -788l374 8l-556 -720l-78 -108l-646 820z" />
    <glyph glyph-name="uniE015" unicode="&#xe015;" 
d="M954 388l-8 -388l-820 646l108 78l720 556l-8 -374l788 -2q52 0 91 -27t65 -87t26 -122l2 -28q0 -164 -97 -234q-39 -28 -91 -28z" />
    <glyph glyph-name="uniE016" unicode="&#xe016;" 
d="M314 904h788l-8 376l720 -556l108 -78l-820 -646l-8 386l-776 -10q-52 0 -91 29q-64 48 -85 143q-12 55 -12 92l2 28q0 63 26 122q50 114 156 114z" />
    <glyph glyph-name="uniE017" unicode="&#xe017;" 
d="M1304 -332v468l198 -260l354 436l88 -70l-424 -384l270 -190h-486zM1348 836l-104 106l104 104l106 -104zM1138 626l-104 106l104 104l106 -104zM928 416l-104 106l104 104l106 -104zM718 206l-104 106l104 104l106 -104zM1138 1256l106 -104l-106 -106l-104 106z
M928 1046l106 -104l-106 -106l-104 106zM718 836l106 -104l-106 -106l-104 106zM508 626l106 -104l-106 -106l-104 106zM1558 836l106 -104l-106 -106l-104 106zM1348 626l106 -104l-106 -106l-104 106zM1138 206l-104 106l104 104l106 -104zM928 -4l-104 106l104 104
l106 -104zM1864 1480q104 -104 151 -219t25 -238t-124 -225l-734 734q102 102 225 124t238 -25t219 -151zM184 -200q-104 104 -152 219t-25 238t125 225l734 -734q-102 -102 -225 -125t-238 25t-219 152z" />
    <glyph glyph-name="uniE018" unicode="&#xe018;" 
d="M1944 308v-490l-194 262l-350 -434l-88 72l424 390l-270 200h478zM1348 836l-104 106l104 104l106 -104zM1138 626l-104 106l104 104l106 -104zM928 416l-104 106l104 104l106 -104zM718 206l-104 106l104 104l106 -104zM1138 1256l106 -104l-106 -106l-104 106z
M928 1046l106 -104l-106 -106l-104 106zM718 836l106 -104l-106 -106l-104 106zM508 626l106 -104l-106 -106l-104 106zM1558 836l106 -104l-106 -106l-104 106zM1348 626l106 -104l-106 -106l-104 106zM1138 206l-104 106l104 104l106 -104zM928 -4l-104 106l104 104
l106 -104zM1864 1480q104 -104 151 -219t25 -238t-124 -225l-734 734q102 102 225 124t238 -25t219 -151zM184 -200q-104 104 -152 219t-25 238t125 225l734 -734q-102 -102 -225 -125t-238 25t-219 152z" />
    <glyph glyph-name="uniE019" unicode="&#xe019;" 
d="M606 1182q-106 0 -142 18t-94 40t-73 33t-30 14t-19 7q-26 30 -80 54q-20 12 -82 59t-72 57t-11 18t3 13t13 12t18 17t67 27t131 34t208 17t223 -30q155 -52 248 -197q27 -43 64 -61q32 0 46 -14t4 -66t15 -156t43 -140q95 -214 235 -375q27 -31 35 -41t13 -16l15 -18
q10 -12 17 -17t18 -13t17 -8h16q10 4 28 28l30 40q12 16 34 28q48 32 116 38q132 12 233 -87t144 -245t-35 -268q-74 -110 -182 -162q-150 -70 -269 -35t-203 129q-128 136 -115 279q9 101 105 166q28 19 39 36t9 24t-14 19t-26 27t-22 23q-216 235 -314 506
q-28 114 -41 132t-20 20q-17 5 -67 -78q-160 -252 -170 -612q-2 -40 6 -51t61 -5t107 -12q130 -42 170 -172t-26 -300q-54 -128 -153 -186t-287 -32q-140 18 -232 144q-52 72 -72 171t3 199t82 147t145 61q67 3 93 -3q25 -7 36 -3t19 13t11 24q5 25 5 54v21q8 56 8 84
q4 28 4 40l-2 28q12 48 14 87t19 89l25 74q8 24 19 41t30 68t24 60t19 25q35 40 30 84q-22 -2 -90 -14t-174 -12z" />
    <glyph glyph-name="uniE01A" unicode="&#xe01a;" 
d="M912 1332q0 32 38 54t90 22t90 -22t38 -54v-384l272 272q22 22 64 11t80 -48t48 -80t-12 -63l-272 -272h384q32 0 54 -38t22 -90t-22 -90t-54 -38h-384l272 -272q22 -20 12 -63t-48 -80t-80 -48t-64 11l-272 272v-384q0 -32 -38 -54t-90 -22t-90 22t-38 54v384l-272 -272
q-20 -22 -62 -12t-80 48t-49 80t11 64l272 272h-384q-32 0 -54 38t-22 90t22 90t54 38h384l-272 272q-22 22 -11 64t49 80t80 48t62 -12l272 -272v384z" />
    <glyph glyph-name="uniE01B" unicode="&#xe01b;" 
d="M130 30q-4 340 248 571t710 307q4 66 12 192t12 194q152 -122 420 -340t390 -316q-303 -246 -501 -409q-199 -163 -297 -243q-14 174 -34 382q-308 4 -542 -68t-418 -270z" />
    <glyph glyph-name="uniE01C" unicode="&#xe01c;" 
d="M410 842q260 0 311 -3t75 16t38 67q137 475 192 614q158 -518 179 -592t45 -91t74 -15q326 6 596 -12q-30 -20 -186 -128t-316 -206q-56 -34 -32 -98q138 -342 224 -628q-388 272 -588 412q-240 -178 -584 -434q162 502 179 556t26 80t13 34t5 23t0 17t-10 13t-17 14
t-30 18t-183 125t-293 218h282z" />
    <glyph glyph-name="uniE01D" unicode="&#xe01d;" horiz-adv-x="2028" 
d="M1018 1224q278 0 475 42t197 100t-197 100t-475 42t-475 -42t-197 -100t197 -100t475 -42zM942 -12l724 724l-180 180l-544 -542l-270 272l-182 -182zM1024 1664q372 0 634 -75t262 -181v-1476q0 -70 -118 -143t-330 -123t-448 -50q-354 0 -625 103t-271 213v1476
q0 106 262 181t634 75z" />
    <glyph glyph-name="uniE01E" unicode="&#xe01e;" 
d="M1025 1238q279 0 475 41t196 100t-197 101t-475 42t-475 -42t-197 -101t197 -100t476 -41zM1152 402v640h-256v-640h-414l542 -542l544 542h-416zM1024 1664q372 0 634 -75t262 -181v-1476q0 -110 -271 -213t-625 -103t-625 103t-271 213v1476q0 106 262 181t634 75z" />
    <glyph glyph-name="uniE01F" unicode="&#xe01f;" 
d="M1025 1238q279 0 475 41t196 100t-197 101t-475 42t-475 -42t-197 -101t197 -100t476 -41zM896 208h640v256h-640v464l-542 -544l542 -544v368zM1024 1664q372 0 634 -75t262 -181v-1476q0 -70 -118 -143t-330 -123t-448 -50q-354 0 -625 103t-271 213v1476
q0 106 262 181t634 75z" />
    <glyph glyph-name="uniE020" unicode="&#xe020;" 
d="M1024 1238q274 0 466 41t192 100t-193 101t-465 42t-465 -42t-193 -101t192 -100t466 -41zM400 -38l252 -70v1088l-252 70v-1088zM1024 1664q362 0 620 -75t258 -181v-1476q0 -110 -265 -213t-613 -103t-613 103t-265 213v1476q0 106 258 181t620 75z" />
    <glyph glyph-name="uniE021" unicode="&#xe021;" 
d="M1882 642q0 270 -193 464t-453 194t-445 -160t-221 -400h422l-496 -486l-496 486h402q38 308 271 517t562 209t571 -242t242 -582t-233 -579t-567 -249v166q264 10 449 201t185 461z" />
    <glyph glyph-name="uniE022" unicode="&#xe022;" 
d="M1568 1414q-108 0 -184 -76t-76 -184t76 -184t184 -76t185 76t77 184t-77 184t-185 76zM1608 658q156 0 267 -110t111 -265t-109 -265t-265 -110q-56 0 -112 18q-116 -146 -279 -228t-355 -82q-340 0 -575 241t-235 585q0 308 231 546t529 276v400l384 -426
q32 146 130 238t257 92t282 -122t123 -293t-118 -291t-280 -120t-270 100t-130 252l-378 -422v424q-200 -37 -392 -220q-88 -84 -145 -199t-57 -235q0 -276 178 -468t448 -192q306 0 500 230q-116 112 -116 269t110 267t266 110z" />
    <glyph glyph-name="uniE023" unicode="&#xe023;" 
d="M1718 -134q84 0 143 60t59 144t-59 143t-143 59t-143 -59t-59 -143t59 -144t143 -60zM1226 -62q0 84 -60 143t-144 59t-143 -59t-59 -143t59 -144t143 -60t144 60t60 144zM328 -134q84 0 143 60t59 144t-59 143t-143 59t-143 -59t-59 -143t59 -144t143 -60zM1718 390
q134 0 228 -94t94 -227t-93 -227t-226 -94t-225 94t-92 227t108 235l-360 614q-8 -2 -2 -8v-660q96 -24 155 -111t59 -210t-110 -218t-245 -95t-235 95t-100 217t62 210t158 112v660q0 8 -8 10l-344 -610q108 -94 108 -234t-94 -234t-228 -94t-227 94t-93 227t93 227t227 94
q52 0 86 -10l370 608q-142 116 -142 284t111 280t269 112t270 -112t112 -283t-150 -287l370 -604q44 12 94 12z" />
    <glyph glyph-name="uniE024" unicode="&#xe024;" 
d="M1532 314q92 0 158 65t66 159t-66 159t-158 65t-158 -65t-66 -159t66 -159t158 -65zM734 -28q0 92 -66 158t-159 66t-159 -66t-66 -158t66 -158t159 -66t159 66t66 158zM1545 894q135 0 239 -104t104 -251t-104 -252t-243 -105t-237 83t-122 209q-168 10 -349 124
t-257 210l4 -488q124 -24 205 -122t81 -236t-104 -242t-250 -104t-249 104t-103 238t93 235t199 127v640q-106 26 -199 127t-93 235t101 238t248 104t251 -104t104 -252q0 -100 -51 -183t-137 -129q12 -142 158 -245t356 -119q32 114 126 188t229 74z" />
    <glyph glyph-name="uniE025" unicode="&#xe025;" 
d="M1021 -384q-339 0 -581 242t-242 571t209 563t517 270v402l484 -496l-484 -496v422q-240 -36 -400 -221t-160 -445t194 -453t464 -193t461 185t201 449h166q-10 -334 -250 -567t-579 -233z" />
    <glyph glyph-name="uniE026" unicode="&#xe026;" 
d="M1920 -384h-512v512h512v-512zM1408 384v512h512v-512h-512zM128 1664h512v-512h-512v512zM1024 1408h768v-128h-768v128zM384 896h128v-256h640v-128h-640v-640h640v-128h-768v1152z" />
    <glyph glyph-name="uniE027" unicode="&#xe027;" 
d="M640 128v1024l768 -512z" />
    <glyph glyph-name="uniE028" unicode="&#xe028;" 
d="M512 1024h1024l-512 -768z" />
    <glyph glyph-name="uniE029" unicode="&#xe029;" 
d="M736 222h-18v-498h-248v1364h-342l456 466l458 -466h-324v-390q113 57 207 93q93 37 120 44t82 22q136 37 335 43v386l458 -468l-458 -468v354q-358 -24 -542 -156t-184 -326z" />
    <glyph glyph-name="uniE02A" unicode="&#xe02a;" 
d="M1024 854l426 426l214 -212l-426 -428l426 -426l-214 -214l-426 428l-426 -428l-214 214l426 426l-426 428l214 212z" />
    <glyph glyph-name="uniE02B" unicode="&#xe02b;" 
d="M896 1024h128v-128h128v-128h128v-128h128v-128h-384v-512h-128v512h-384v128h128v128h128v128h128v128zM384 -128h1280v1024h-512v512h-768v-1536zM1792 -256h-1536v1792h896l640 -634v-1158z" />
    <glyph glyph-name="uniE02C" unicode="&#xe02c;" 
d="M896 768h256v-256h256v-256h-256v-256h-256v256h-256v256h256v256zM384 -128h1280v1024h-512v512h-768v-1536zM1792 -256h-1536v1792h896l640 -640v-1152z" />
    <glyph glyph-name="uniE02D" unicode="&#xe02d;" 
d="M384 -128h1280v1024h-512v512h-768v-1536zM1792 -256h-1536v1792h898l638 -634v-1158zM1024 1024v-512h384v-128h-128v-128h-128v-128h-128v-128h-128v128h-128v128h-128v128h-128v128h384v512h128z" />
    <glyph glyph-name="uniE02E" unicode="&#xe02e;" 
d="M128 -256h1792v1408h-1792v-1408zM0 1664h2048v-2048h-2048v2048zM516 -80l-72 72l218 218l-218 216l72 74l290 -290z" />
    <glyph glyph-name="uniE02F" unicode="&#xe02f;" 
d="M598 720l90 90l272 -272l272 272l90 -90l-272 -272l272 -272l-90 -90l-272 272l-272 -272l-90 90l272 272zM384 -128h1280v1024h-512v512h-768v-1536zM1792 -256h-1536v1792h896l640 -640v-1152z" />
    <glyph glyph-name="uniE030" unicode="&#xe030;" 
d="M1536 1152v-828l-350 348l-548 -546l-112 120l544 548l-348 358h814zM256 -128h1536v1536h-1536v-1536zM128 -256v1792h1792v-1792h-1792z" />
    <glyph glyph-name="uniE031" unicode="&#xe031;" 
d="M724 1280q80 0 136 -56t56 -136t-56 -136t-136 -56t-136 56t-56 136t56 136t136 56zM1664 896h-512v512h-768v-1030l200 192l248 -240l394 398l438 -448v616zM1792 -256h-1536v1792h916l502 -512l118 -128v-1152z" />
    <glyph glyph-name="uniE032" unicode="&#xe032;" 
d="M2048 302q0 -150 -110 -275t-274 -149v-6h-512v384h388l-516 516l-516 -516h388v-384h-512v6q-164 24 -274 149t-110 279t79 267t205 163q-28 88 -28 160q0 212 150 362t362 150q154 0 279 -83t187 -217q82 44 174 44q160 0 272 -112t112 -272q0 -14 -4 -42
q118 -54 189 -164t71 -260z" />
    <glyph glyph-name="uniE033" unicode="&#xe033;" 
d="M1152 128h-256v256h256v-256zM1152 512h-256v640h256v-640zM1024 -256q370 0 633 263t263 633t-263 633t-633 263t-633 -263t-263 -633t263 -633t633 -263zM1024 1664q424 0 724 -300t300 -724t-300 -724t-724 -300t-724 300t-300 724t300 724t724 300z" />
    <glyph glyph-name="uniE034" unicode="&#xe034;" 
d="M1024 -256q370 0 633 263t263 633t-263 633t-633 263t-633 -263t-263 -633t263 -633t633 -263zM1024 1664q424 0 724 -300t300 -724t-300 -724t-724 -300t-724 300t-300 724t300 724t724 300zM1024 810l342 342l170 -172l-342 -340l342 -342l-170 -170l-342 340
l-342 -340l-170 170l342 342l-342 340l170 172z" />
    <glyph glyph-name="uniE035" unicode="&#xe035;" 
d="M1664 256h-1280v256h1280v-256zM1664 -256h-1280v256h1280v-256zM384 1280v256h1280v-256h-1280zM1664 768h-1280v256h1280v-256z" />
    <glyph glyph-name="uniE036" unicode="&#xe036;" 
d="M1664 52v256h256v-512h-1792v512h256v-256h1280zM1492 776l-464 -604l-472 600l282 4l-6 568q0 62 48 96t96 38l48 4q121 0 171 -69q21 -29 21 -67l2 -574z" />
    <glyph glyph-name="uniE037" unicode="&#xe037;" 
d="M1464 818q0 250 -178 428t-428 178t-428 -178t-178 -428t178 -428t428 -178t428 178t178 428zM52 818q0 334 236 570t570 236t570 -236q214 -214 234 -517t-162 -539l6 6l570 -570l-190 -192l-570 572l28 28q-236 -182 -539 -162t-517 234q-236 236 -236 570z" />
    <glyph glyph-name="uniE03A" unicode="&#xe03a;" 
d="M1282 -244q280 82 464 312t198 528h-410q-6 -266 -74 -489t-178 -351zM1092 596v-864q142 52 238 295t102 569h-340zM990 596h-374q8 -346 114 -595t260 -277v872zM514 596h-410q14 -298 198 -528t464 -312q-110 128 -178 351t-74 489zM766 1524q-276 -80 -459 -306
t-203 -520h410q8 262 75 480t177 346zM990 698v860q-152 -28 -259 -273t-115 -587h374zM1092 698h340q-8 322 -104 561t-236 291v-852zM1534 698h410q-20 294 -203 520t-459 306q110 -128 177 -346t75 -480zM1024 1664q424 0 724 -300t300 -724q0 -278 -137 -514t-373 -373
t-514 -137t-514 137t-373 373t-137 514q0 424 300 724t724 300z" />
    <glyph glyph-name="uniE03B" unicode="&#xe03b;" 
d="M1024 1204q64 0 109 -46t45 -108q0 -24 -10 -50l216 -216q26 10 50 10q64 0 109 -45t45 -109t-46 -109t-109 -45t-108 45t-45 109q0 22 10 46l-198 198v-518q86 -44 86 -136q0 -62 -45 -108t-109 -46t-109 46t-45 108q0 92 86 136v548q-86 44 -86 136q0 20 10 46
l-144 144l-600 -602l888 -888l888 888l-888 890l-192 -192l144 -142q36 10 48 10zM2048 640q0 -60 -42 -102l-880 -880q-42 -42 -102 -42t-102 42l-880 880q-42 42 -42 102t42 102l880 880q42 42 102 42t102 -42l880 -880q42 -42 42 -102z" />
    <glyph glyph-name="uniE03C" unicode="&#xe03c;" 
d="M1356 -112l-552 956l-552 -956h1104zM1514 -112h314l-788 1366l-158 -274zM16 -248l1024 1774l1024 -1774h-2048z" />
    <glyph glyph-name="uniE03D" unicode="&#xe03d;" 
d="M760 -198l466 466l-558 558l-466 -466zM760 -384l-744 744l1304 1304l744 -744z" />
    <glyph glyph-name="uniE03E" unicode="&#xe03e;" 
d="M1152 128v-512h-256v512h-384l512 512l512 -512h-384zM384 1152h1280v-256h-1280v256zM1664 1664v-256h-1280v256h1280z" />
    <glyph glyph-name="uniE03F" unicode="&#xe03f;" 
d="M1152 640v-512h384l-512 -512l-512 512h384v512h256zM384 1152h1280v-256h-1280v256zM1664 1664v-256h-1280v256h1280z" />
    <glyph glyph-name="uniE040" unicode="&#xe040;" 
d="M768 384h512v-128h-512v128zM768 128h512v-128h-512v128zM1536 256h256v640h-1536v-640h256v384h1024v-384zM640 -128h768v640h-768v-640zM1536 1408h-1024v-256h1024v256zM1664 1536v-384h256v-1024h-384v-384h-1024v384h-384v1024h256v384h1280z" />
    <glyph glyph-name="uniE041" unicode="&#xe041;" 
d="M1088 -64h768v1408h-768v-1408zM192 1344v-1408h768v1408h-768zM64 -192v1664h1920v-1664h-1920z" />
    <glyph glyph-name="uniE042" unicode="&#xe042;" 
d="M192 704h1664v640h-1664v-640zM192 -64h1664v640h-1664v-640zM64 -192v1664h1920v-1664h-1920z" />
    <glyph glyph-name="uniE043" unicode="&#xe043;" 
d="M1012 992q-165 0 -208 -184l-194 24q10 132 114 228q110 94 286 94t283 -95t107 -219q0 -64 -35 -119t-173 -171q-12 -10 -29 -23q-48 -37 -55 -51l-14 -92h-190q-2 0 -2 44t31 103t123 133t115 105t23 84t-50 95q-46 44 -132 44zM1114 42h-212v212h212v-212zM1024 -256
q370 0 633 263t263 633t-263 633t-633 263t-633 -263t-263 -633t263 -633t633 -263zM1024 1664q424 0 724 -300t300 -724t-300 -724t-724 -300t-724 300t-300 724t300 724t724 300z" />
    <glyph glyph-name="uniE044" unicode="&#xe044;" 
d="M1152 812h-256v256h256v-256zM1152 172h-256v512h256v-512zM1024 -256q370 0 633 263t263 633t-263 633t-633 263t-633 -263t-263 -633t263 -633t633 -263zM1024 1664q424 0 724 -300t300 -724t-300 -724t-724 -300t-724 300t-300 724t300 724t724 300z" />
    <glyph glyph-name="uniE045" unicode="&#xe045;" 
d="M1024 384q106 0 181 75t75 181t-75 181t-181 75t-181 -75t-75 -181t75 -181t181 -75zM1920 768v-256h-400q-42 -166 -181 -275t-315 -109t-315 109t-181 275h-400v256h400q42 166 181 275t315 109t315 -109t181 -275h400z" />
    <glyph glyph-name="uniE046" unicode="&#xe046;" 
d="M896 896h-256v-1024h256v1024zM1408 896h-256v-1024h256v1024zM1664 -256h-1280v1280h1280v-1280zM768 1280h512v128h-512v-128zM1408 1536v-256h384v-128h-1536v128h384v256h768z" />
    <glyph glyph-name="uniE047" unicode="&#xe047;" 
d="M896 128v512h-384l512 512l512 -512h-384v-512h-256zM128 -256h1792v1792h-1792v-1792zM0 -384v2048h2048v-2048h-2048zM1408 1408h128v-128h-128v128zM256 1152h128v-128h-128v128zM1024 1408h256v-128h-256v128zM640 1408h256v-128h-256v128zM256 1408h256v-128h-256
v128zM1664 256h128v-128h-128v128zM1792 -128h-256v128h256v-128zM1408 -128h-256v128h256v-128zM1024 -128h-256v128h256v-128zM640 -128h-128v128h128v-128zM1664 640h128v-256h-128v256zM1664 1408h128v-256h-128v256zM1664 1024h128v-256h-128v256zM256 128h128v-256
h-128v256zM256 512h128v-256h-128v256zM256 896h128v-256h-128v256z" />
    <glyph glyph-name="uniE048" unicode="&#xe048;" 
d="M1152 1152v-512h384l-512 -512l-512 512h384v512h256zM128 -256h1792v1792h-1792v-1792zM0 -384v2048h2048v-2048h-2048zM1408 1408h128v-128h-128v128zM256 1152h128v-128h-128v128zM1024 1408h256v-128h-256v128zM640 1408h256v-128h-256v128zM256 1408h256v-128h-256
v128zM1664 256h128v-128h-128v128zM1792 -128h-256v128h256v-128zM1408 -128h-256v128h256v-128zM1024 -128h-256v128h256v-128zM640 -128h-128v128h128v-128zM1664 640h128v-256h-128v256zM1664 1408h128v-256h-128v256zM1664 1024h128v-256h-128v256zM256 128h128v-256
h-128v256zM256 512h128v-256h-128v256zM256 896h128v-256h-128v256z" />
    <glyph glyph-name="uniE04A" unicode="&#xe04a;" 
d="M1280 512h512v-128h-512v128zM768 1024h-512v128h512v-128zM350 416l72 74l290 -290l-290 -290l-72 72l218 218zM1642 806l-72 -72l-290 290l290 290l72 -74l-218 -216zM1792 0v-128h-512v128h512zM1280 256h512v-128h-512v128zM768 768h-512v128h512v-128zM256 1280v128
h512v-128h-512zM1152 -256h768v1792h-768v-1792zM128 1536v-1792h768v1792h-768zM0 1664h2048v-2048h-2048v2048z" />
    <glyph glyph-name="uniE04B" unicode="&#xe04b;" 
d="M1792 512h-128v256h128v-256zM768 512h-512v256h512v-256zM1408 384v128h128v-128h-128zM1536 768h-128v-256h-256v-128h-128v128h128v256h-128v128h128v-128h256v128h128v-128zM256 0v256h128v-256h-128zM1280 0v256h512v-256h-512zM1024 0v-128h-128v128h128zM640 -128
h-128v128h128v-128zM512 256v128h128v-128h256v128h128v-128h-128v-256h-256v256h-128zM256 1024v256h128v-256h-128zM1280 1024v256h512v-256h-512zM640 896h-128v128h128v-128zM896 1408h128v-128h-128v128zM512 1280v128h128v-128h256v-256h128v-128h-128v128h-256v256
h-128zM128 -256h1792v1792h-1792v-1792zM0 -384v2048h2048v-2048h-2048z" />
    <glyph glyph-name="uniE04C" unicode="&#xe04c;" 
d="M1736 878l-72 -72l-290 290l290 290l72 -74l-218 -216zM1664 128h-640v128h640v-128zM712 200l-290 -290l-72 72l218 218l-218 216l72 74zM384 1152h640v-128h-640v128zM128 -256h1792v1792h-1792v-1792zM0 -384v2048h2048v-2048h-2048z" />
    <glyph glyph-name="uniE04D" unicode="&#xe04d;" 
d="M1664 1280h-1280l128 -256l128 -86l384 -426l384 426l128 86zM128 1536h1792v-384l-640 -640v-128l-128 -512l-384 -128v768l-640 640v384z" />
    <glyph glyph-name="uniE04E" unicode="&#xe04e;" 
d="M2048 0q0 -132 -94 -226t-226 -94t-226 94t-94 226t94 226t226 94t226 -94t94 -226zM1536 1344h-1280l128 -256l128 -86l384 -426l384 426l128 86zM0 1600h1792v-384l-640 -640v-128l-128 -512l-384 -128v768l-640 640v384z" />
    <glyph glyph-name="uniE050" unicode="&#xe050;" 
d="M1720 1336l200 -198l-1194 -1196l-598 598l200 200l398 -398z" />
    <glyph glyph-name="uniE051" unicode="&#xe051;" 
d="M1152 -352h-256v128h256v-128zM1280 -96h-512v128h512v-128zM1152 288v210q166 42 275 180t109 314q0 212 -150 362t-362 150t-362 -150t-150 -362q0 -176 109 -314t275 -180v-210h256zM1024 1632q266 0 453 -187t187 -453q0 -194 -106 -352t-278 -234v-246h-512v246
q-172 76 -278 234t-106 352q0 266 187 453t453 187z" />
    <glyph glyph-name="uniE052" unicode="&#xe052;" 
d="M384 0v256h1280v-256h-1280zM384 384v256h1280v-256h-1280zM128 -256h1792v1408l-384 384h-128v-640h-1024v640h-256v-1792zM1280 1024v512h-384v-512h384zM0 1664h1536l512 -512v-1536h-2048v2048z" />
    <glyph glyph-name="uniE053" unicode="&#xe053;" 
d="M676 512h768v-128h-768v128zM676 256h768v-126h-768v126zM676 896h768v-128h-768v128zM676 1150h768v-126h-768v126zM294 -126h1532v1532h-1532v-1532zM166 -254v1788h1788v-1788h-1788z" />
    <glyph glyph-name="uniE054" unicode="&#xe054;" 
d="M1040 384h510v-254h-510v254zM1040 1150h510v-254h-510v254zM530 20v510l384 -256zM530 786v510l384 -254zM274 -126h1532v1532h-1532v-1532zM146 -254v1788h1788v-1788h-1788z" />
    <glyph glyph-name="uniE055" unicode="&#xe055;" 
d="M1346 864q70 0 119 50t49 118t-49 118t-119 50t-119 -50t-49 -118t49 -118t119 -50zM1178 136q0 68 -49 118t-119 50t-119 -50t-49 -118t49 -118t119 -50t119 50t49 118zM898 1088q70 0 119 50t49 118t-49 118t-119 50t-119 -50t-49 -118t49 -118t119 -50zM562 192
q70 0 119 50t49 118t-49 118t-119 50t-119 -50t-49 -118t49 -118t119 -50zM450 752q70 0 119 50t49 118t-49 118t-119 50t-119 -50t-49 -118t49 -118t119 -50zM1475 664q-73 0 -185 -24q-28 0 29 -117t133 -288t76 -267q0 -22 -48 -96t-64 -80q-99 -37 -252 -48
q-112 0 -152 8t-106 20q-147 42 -237 92q-89 50 -167 116l-72 66l-66 72q-139 162 -208 404q-12 64 -20 106t-8 152q14 191 66 300t102 166q18 26 56 66q71 64 134 106q100 58 190 84t208 34q97 0 172 -10q206 -44 336 -120q82 -44 154 -106l72 -66l66 -72
q139 -162 208 -404q12 -66 20 -106t8 -152q-7 -98 -22 -168q-6 -16 -39 -37t-79 -15t-70 54t-35 101t-16 90t-24 72t-53 51t-107 16z" />
    <glyph glyph-name="uniE056" unicode="&#xe056;" 
d="M1850 508v-138h-296q-3 -98 -20 -146q-16 -48 -20 -64l278 -230l-82 -78l-236 218q-66 -150 -167 -238t-217 -88t-217 87t-167 237l-236 -222l-82 70l278 244q-4 16 -20 64t-20 146h-428v138h426q6 138 8 138h916l8 -138h294zM1530 784h-880q2 0 16 56l-278 238l82 78
l236 -218q94 216 250 292l-248 230l84 76l292 -274l2 2h6l4 -2l292 274l84 -76l-248 -230q158 -78 250 -292l236 222l82 -72l-278 -250q14 -54 16 -54z" />
    <glyph glyph-name="uniE057" unicode="&#xe057;" 
d="M448 -128v1536l1152 -768z" />
    <glyph glyph-name="uniE058" unicode="&#xe058;" 
d="M1664 274q0 -114 -80 -194t-194 -80h-732q-114 0 -194 80t-80 194v732q0 114 80 194t194 80h732q114 0 194 -80t80 -194v-732z" />
    <glyph glyph-name="uniE059" unicode="&#xe059;" 
d="M384 0h1024v640h128v-768h-1280v1280h768v-128h-640v-1024zM1792 1408v-828l-350 348l-548 -546l-112 120l544 548l-348 358h814z" />
    <glyph glyph-name="uniE060" unicode="&#xe060;" 
d="M1216 794v-64h-138q-2 -34 -18 -106l128 -118l-38 -34l-110 100q-64 -150 -177 -150t-179 150l-110 -102l-38 36l130 118q-16 58 -20 106h-198v64h198q2 64 4 64h424l4 -64h138zM1066 922h-408q2 0 8 16l-130 102l38 36l110 -102q44 102 116 136l-114 108l38 34l136 -126
h4l136 128l40 -36l-116 -106q74 -36 116 -136l110 104l38 -30l-128 -112q4 -16 6 -16zM52 818q0 334 236 570t570 236t570 -236q214 -214 234 -517t-162 -539l6 6l570 -570l-190 -192l-570 572l28 28q-236 -182 -539 -162t-517 234q-236 236 -236 570zM1464 818
q0 250 -178 428t-428 178t-428 -178t-178 -428t178 -428t428 -178t428 178t178 428z" />
    <glyph glyph-name="uniE061" unicode="&#xe061;" 
d="M1636 460h154q-6 -178 -100 -335t-250 -261v200q82 78 136 190t60 206zM258 514q0 314 178 526t524 246v378l456 -466l-456 -468v398q-262 -34 -404 -202t-142 -412q0 -292 184 -458v-198q-162 102 -251 275t-89 381zM1080 -386v726h240v-726h-240zM718 -386v726h242
v-726h-242z" />
    <glyph glyph-name="uniE062" unicode="&#xe062;" 
d="M1282 202q82 -80 104 -174t-28 -144t-143 -28t-175 104q-114 116 -283 361t-124 290t291 -125t358 -284zM0 438q0 424 300 724t724 300t724 -300t300 -724q0 -22 -4 -62h-386q6 60 6 62q0 266 -187 453t-453 187t-453 -187t-187 -453q0 -2 6 -62h-386q-4 40 -4 62z" />
    <glyph glyph-name="uniE064" unicode="&#xe064;" 
d="M512 0h-256v256h256v-256zM1792 0h-1024v256h1024v-256zM512 512h-256v256h256v-256zM1792 512h-1024v256h1024v-256zM512 1024h-256v256h256v-256zM1792 1024h-1024v256h1024v-256z" />
    <glyph glyph-name="uniE065" unicode="&#xe065;" 
d="M592 208l604 258l250 594l-606 -258zM520 1154q202 192 509 188t503 -203t195 -512t-212 -514t-523 -188t-501 219t-181 512t210 498zM938 716h162v-164h-162v164zM978 -254q254 -10 465 99t335 309t130 450q10 386 -239 649t-631 271q-254 4 -462 -109t-327 -317
t-121 -456q-4 -370 239 -626t611 -270zM551 1541q247 131 520 115t501 -167t355 -391t115 -509t-161 -499t-389 -360t-509 -120t-500 156t-363 384t-126 512t158 511t399 368z" />
    <glyph glyph-name="uniE066" unicode="&#xe066;" 
d="M694 422l-90 -90l-306 308l34 38l272 272l90 -90l-154 -156h970l-154 156l90 90l312 -310l-40 -36l-272 -272l-90 90l154 154h-970zM192 -64h1664v1408h-1664v-1408zM64 -192v1664h1920v-1664h-1920z" />
    <glyph glyph-name="uniE067" unicode="&#xe067;" 
d="M192 -64h1664v1408h-1664v-1408zM64 -192v1664h1920v-1664h-1920zM1216 192h384v384h-384v-384zM1088 704h640v-640h-640v640z" />
  </font>
</defs>
</svg>
