<?xml version="1.0" standalone="no"?>
<!DOCTYPE svg PUBLIC "-//W3C//DTD SVG 1.1//EN" "http://www.w3.org/Graphics/SVG/1.1/DTD/svg11.dtd" >
<svg xmlns="http://www.w3.org/2000/svg">
<defs>
  <font id="iconcool" horiz-adv-x="1076.923076923077">
    <font-face font-family="iconcool"
      units-per-em="1000" ascent="876"
      descent="124" />
    <missing-glyph horiz-adv-x="0" />
    <glyph glyph-name="baocuo"
      unicode="&#xE626;"
      horiz-adv-x="1000" d="M500 813.5C741.624575 813.5 937.5 617.624578125 937.5 376C937.5 134.375425 741.624575 -61.5 500 -61.5C258.3754218750001 -61.5 62.5 134.375425 62.5 376C62.5 617.624578125 258.3754218750001 813.5 500 813.5zM500 188.5C474.1116525 188.5 453.125 167.5133500000001 453.125 141.625C453.125 115.73665 474.1116525 94.75 500 94.75C525.8883475 94.75 546.875 115.73665 546.875 141.625C546.875 167.5133500000001 525.8883475 188.5 500 188.5zM500 657.25C482.741101875 657.25 468.75 643.258898125 468.75 626L468.75 282.25C468.75 264.9911018749999 482.741101875 251 500 251C517.258898125 251 531.25 264.9911018749999 531.25 282.25L531.25 626C531.25 643.258898125 517.258898125 657.25 500 657.25z" />
    <glyph glyph-name="bianji"
      unicode="&#xE60C;"
      horiz-adv-x="1000" d="M915.52734375 -9.009765625C932.38173828125 -9.009765625 946.044921875 -22.67294921875 946.044921875 -39.52734375C946.044921875 -56.38173828125 932.38173828125 -70.044921875 915.52734375 -70.044921875L61.03515625 -70.044921875C44.180763671875 -70.044921875 30.517578125 -56.38173828125 30.517578125 -39.52734375C30.517578125 -22.67294921875 44.180763671875 -9.009765625 61.03515625 -9.009765625L915.52734375 -9.009765625zM625.6033330078125 836.5311044921875C637.520935546875 848.4629912109375 656.8572080078126 848.4666630859375 668.779345703125 836.5393037109375L842.16767578125 663.0750166015625C854.0792236328125 651.1582509765625 854.0792353515625 631.842892578125 842.1677001953125 619.9261162109375L351.24294921875 128.7853701171876C345.5194072265625 123.0593076171875 337.7551083984375 119.84223046875 329.6590166015625 119.84223046875L155.9787333984375 119.84223046875C139.12433984375 119.84223046875 125.4611552734375 133.5054140625 125.4611552734375 150.35980859375L125.4611552734375 323.1594912109374C125.4611552734375 331.2469248046875 128.671375 339.003650390625 134.3866279296875 344.7257519531251L625.6033330078125 836.5311044921875zM647.1896728515625 771.81298828125L186.4963115234375 310.5703125L186.4963115234375 180.931640625L316.9894755859375 180.931640625L777.4386962890625 641.5029296875L647.1896728515625 771.81298828125z" />
    <glyph glyph-name="biaodan"
      unicode="&#xE61E;"
      horiz-adv-x="1000" d="M244.140625 753.9296875L244.140625 692.89453125L183.10546875 692.89453125L183.10546875 21.5078125L793.45703125 21.5078125L793.45703125 692.89453125L732.421875 692.89453125L732.421875 753.9296875L823.974609375 753.9296875C840.8290009765625 753.9296875 854.4921875 740.266501953125 854.4921875 723.412109375L854.4921875 -9.009765625C854.4921875 -25.8641572265625 840.8290009765625 -39.52734375 823.974609375 -39.52734375L152.587890625 -39.52734375C135.733498046875 -39.52734375 122.0703125 -25.8641572265625 122.0703125 -9.009765625L122.0703125 723.412109375C122.0703125 740.266501953125 135.733498046875 753.9296875 152.587890625 753.9296875L244.140625 753.9296875zM701.904296875 265.6484375C718.7586884765625 265.6484375 732.421875 251.9852509765625 732.421875 235.130859375C732.421875 218.2764677734375 718.7586884765625 204.61328125 701.904296875 204.61328125L274.658203125 204.61328125C257.803810546875 204.61328125 244.140625 218.2764677734375 244.140625 235.130859375C244.140625 251.9852509765625 257.803810546875 265.6484375 274.658203125 265.6484375L701.904296875 265.6484375zM701.904296875 479.271484375C718.7586884765625 479.271484375 732.421875 465.6082978515625 732.421875 448.75390625C732.421875 431.8995146484375 718.7586884765625 418.236328125 701.904296875 418.236328125L274.658203125 418.236328125C257.803810546875 418.236328125 244.140625 431.8995146484375 244.140625 448.75390625C244.140625 465.6082978515625 257.803810546875 479.271484375 274.658203125 479.271484375L701.904296875 479.271484375zM640.869140625 814.96484375C657.7235322265625 814.96484375 671.38671875 801.301658203125 671.38671875 784.447265625L671.38671875 662.376953125C671.38671875 645.522560546875 657.7235322265625 631.859375 640.869140625 631.859375L335.693359375 631.859375C318.8389677734375 631.859375 305.17578125 645.522560546875 305.17578125 662.376953125L305.17578125 784.447265625C305.17578125 801.301658203125 318.8389677734375 814.96484375 335.693359375 814.96484375L640.869140625 814.96484375zM610.3515625 753.9296875L366.2109375 753.9296875L366.2109375 692.89453125L610.3515625 692.89453125L610.3515625 753.9296875z" />
    <glyph glyph-name="buxihuan"
      unicode="&#xE617;"
      horiz-adv-x="1000" d="M93.752311875 813.5C76.492136875 813.5 62.5 793.8005312500001 62.5 769.5L62.5 357.5C62.5 333.19947125 76.492136875 313.5 93.752311875 313.5L201 313.5L210.775016875 311.022561875C259.5218118750001 297.617873125 318.6558862500001 271.206271875 342.14920625 236.6754156250001L350.41891125 222.396025625C356.231078125 211.862475 367.661010625 189.0804475 372.231373125 162.98726125C374.93973625 147.5246325000001 377.961738125 132.07550125 381.297378125 116.6398681249999L386.5360681250001 93.4965418750001C399.2337725 27.354955625 440.4650025 1 479.5989275 1C603.297664375 1 663.37705 83.874560625 657.17974375 238.0852387500001L656.41265625 248.7704256249999L653.9702375 278.317164375L777.3091312500001 278.35657625C836.66951875 278.35657625 871.571 290.926434375 874.76034375 331.148280625L875 337.3908325L874.785025 339.3512056250001L791.29335625 755.2112812500001C779.7463125 790.37630625 740.69520625 813.5 697.13185 813.5zM479.5989275 63.5C466.908981875 63.5 456.09409625 72.0502981249999 449.27895625 99.181448125L447.3565312500001 107.88824875C442.16478875 129.828953125 437.6442668750001 151.789180625 433.7941525 173.770314375C430.65096125 191.7154718749999 425.208480625 209.07377875 418.12301625 225.85098375L410.7888975 241.567568125C404.736685 253.7995506250001 398.883826875 264.4656200000001 402.953735 256.244326875C379.292160625 304.04116 323.0711706250001 339.8906400000001 257.011119375 362.319805625L250 364.5625L250 751L697.13185 751C713.6624499999999 751 726.13955 744.6374875 730.53536875 738.37271875L731.1875 737L810.5 343.125L807.691725 342.683338125C802.18581875 341.8508043750001 795.09516875 341.239516875 786.45058125 340.98590625L777.2891625 340.8565731250001L586.0924331250001 340.7954775000001L594.730154375 235.575560625C599.66238875 112.8442675 563.010381875 63.5 479.5989275 63.5zM187.5 376L125 376L125 751L187.5 751L187.5 376z" />
    <glyph glyph-name="caidan"
      unicode="&#xE61A;"
      horiz-adv-x="1000" d="M122.0703125 723.412109375L854.4921875 723.412109375C871.3465791015625 723.412109375 885.009765625 709.748923828125 885.009765625 692.89453125C885.009765625 676.040138671875 871.3465791015625 662.376953125 854.4921875 662.376953125L122.0703125 662.376953125C105.215919921875 662.376953125 91.552734375 676.040138671875 91.552734375 692.89453125C91.552734375 709.748923828125 105.215919921875 723.412109375 122.0703125 723.412109375zM122.0703125 418.236328125L854.4921875 418.236328125C871.3465791015625 418.236328125 885.009765625 404.5731416015625 885.009765625 387.71875C885.009765625 370.8643583984375 871.3465791015625 357.201171875 854.4921875 357.201171875L122.0703125 357.201171875C105.215919921875 357.201171875 91.552734375 370.8643583984375 91.552734375 387.71875C91.552734375 404.5731416015625 105.215919921875 418.236328125 122.0703125 418.236328125zM122.0703125 113.060546875L854.4921875 113.060546875C871.3465791015625 113.060546875 885.009765625 99.3973603515625 885.009765625 82.54296875C885.009765625 65.6885771484375 871.3465791015625 52.025390625 854.4921875 52.025390625L122.0703125 52.025390625C105.215919921875 52.025390625 91.552734375 65.6885771484375 91.552734375 82.54296875C91.552734375 99.3973603515625 105.215919921875 113.060546875 122.0703125 113.060546875z" />
    <glyph glyph-name="copyRight"
      unicode="&#xE624;"
      horiz-adv-x="1000" d="M104.6316962890625 4.1947548828125C104.6316962890625 4.3203125 453.383091796875 4.257533203125 871.8052451171875 4.0691962890626C871.6796875 4.0691962890626 871.742466796875 352.820591796875 871.9308037109374 771.2427451171875C871.9308037109374 771.1171865234375 523.179408203125 771.1799658203125 104.75725390625 771.3683037109375C104.8828115234375 771.3683037109375 104.820033203125 422.616908203125 104.6316962890625 4.1947548828125zM34.877232421875 777.05329296875C34.877232421875 812.3490517578125 64.03459765625 841.122767578125 98.94670703125 841.122767578125L877.6157919921875 841.122767578125C912.9115517578126 841.122767578125 941.685267578125 811.96540234375 941.685267578125 777.05329296875L941.685267578125 -1.6157919921875C941.685267578125 -36.9115517578125 912.5279013671874 -65.685267578125 877.6157919921875 -65.685267578125L98.94670703125 -65.685267578125C63.6348134765625 -65.5103652343751 35.0521337890625 -36.927685546875 34.877232421875 -1.6157919921875L34.877232421875 777.05329296875zM680.0631923828125 591.9532412109374C694.1834521484375 608.3234208984375 719.1581396484376 610.3650595703125 735.8457187500001 596.513369140625C751.49032421875 583.5274091796875 754.2973134765625 561.1828769531251 742.95233984375 544.9519248046875L740.4942626953125 541.7918330078126L450.2341474609375 205.2817089843751C435.2283232421875 187.8848583984375 408.53894921875 187.01371875 392.354263671875 202.586462890625L389.611703125 205.5052744140626L257.675287109375 360.8176396484376C243.68089453125 377.291501953125 245.949833984375 401.7751259765625 262.74310546875 415.50334375C278.4867978515625 428.373548828125 301.406814453125 427.2216806640626 315.7413427734375 413.45337890625L318.48910546875 410.531916015625L420.2297109375 290.7530380859376L680.0631923828125 591.9532412109374z" />
    <glyph glyph-name="cuowuweixian"
      unicode="&#xE60D;"
      horiz-adv-x="1000" d="M488.28125 814.96484375C724.2427519531251 814.96484375 915.52734375 623.680251953125 915.52734375 387.71875C915.52734375 151.7572480468749 724.2427519531251 -39.52734375 488.28125 -39.52734375C252.319748046875 -39.52734375 61.03515625 151.7572480468749 61.03515625 387.71875C61.03515625 623.680251953125 252.319748046875 814.96484375 488.28125 814.96484375zM488.28125 784.447265625C269.174140625 784.447265625 91.552734375 606.8258593749999 91.552734375 387.71875C91.552734375 168.6116425781251 269.174140625 -9.009765625 488.28125 -9.009765625C707.388357421875 -9.009765625 885.009765625 168.6116425781251 885.009765625 387.71875C885.009765625 606.8258593749999 707.388357421875 784.447265625 488.28125 784.447265625zM630.4926943359375 550.6830869140624L651.2455869140625 529.9301943359376C654.017220703125 527.1585605468749 654.2376650390626 522.737640625 651.7554990234376 519.7040341796876L543.76220703125 387.71875L651.7554990234376 255.7334658203125C654.2376650390626 252.699859375 654.017220703125 248.278939453125 651.2455869140625 245.5073056640626L630.4926943359375 224.7544130859375C627.721060546875 221.982779296875 623.300140625 221.7623349609374 620.2665341796875 224.2445009765625L488.28125 332.23779296875L356.2959658203125 224.2445009765625C353.262359375 221.7623349609374 348.841439453125 221.982779296875 346.0698056640625 224.7544130859375L325.3169130859376 245.5073056640626C322.545279296875 248.278939453125 322.3248349609375 252.699859375 324.8070009765625 255.7334658203125L432.80029296875 387.71875L324.8070009765625 519.7040341796876C322.3248349609375 522.737640625 322.545279296875 527.1585605468749 325.3169130859376 529.9301943359376L346.0698056640625 550.6830869140624C348.841439453125 553.4547207031251 353.262359375 553.6751650390624 356.2959658203125 551.1929990234376L488.28125 443.19970703125L620.2665341796875 551.1929990234376C623.300140625 553.6751650390624 627.721060546875 553.4547207031251 630.4926943359375 550.6830869140624z" />
    <glyph glyph-name="daima"
      unicode="&#xE620;"
      horiz-adv-x="1000" d="M769.25722265625 128.5A35 35 0 0 0 716.81277734375 128.5A42 42 0 0 0 705.9238886718749 156.9999999999999C705.9238886718749 167.7222226562499 709.8127773437499 177.9999999999999 716.81277734375 185.4444443359374L907.646111328125 357.4444443359373L716.81277734375 529.3888886718748A42.111111328125006 42.111111328125006 0 0 0 705.9238886718749 557.9444443359373C705.9238886718749 568.6666669921874 709.8127773437499 578.9444443359373 716.81277734375 586.4444443359373A35.111111328125006 35.111111328125006 0 0 0 769.25722265625 586.4444443359373L989.535 387.9444443359373C997.3127773437498 379.6111113281248 1000.535 368.4999999999999 1000.035 357.3888886718749A41.722222656250004 41.722222656250004 0 0 0 989.4794443359376 326.8888886718749L769.25722265625 128.4999999999999zM397.31277734375 -7.6666669921875C379.6461103515625 -1.72222265625 375.7572216796875 26.2222216796874 385.0905556640625 44.4444443359374L552.8683330078125 692.7777773437499S582.6461103515625 717.2222216796874 598.6461113281249 706.6666669921874C606.368333984375 701.6666669921874 611.9794443359374 693.3888896484374 614.31277734375 683.6111113281249A42.8333330078125 42.8333330078125 0 0 0 610.9794443359375 654.6666669921874L443.2016669921876 6.22222265625C433.8683339843751 -11.9444443359375 419.0350000000001 -15 397.3127773437501 -7.6666669921875zM283.31277734375 122.388888671875A35.0555556640625 35.0555556640625 0 0 0 230.923888671875 122.388888671875L10.646111328125 319.4444443359376A41.27777734375 41.27777734375 0 0 0 0.146111328125 349.77777734375A41.111111328125 41.111111328125 0 0 0 10.7016669921875 380.1111113281251L230.923888671875 577.22222265625C245.3683330078125 592.833333984375 268.8683330078125 592.833333984375 283.31277734375 577.22222265625A41.5 41.5 0 0 0 294.25722265625 548.8888886718751C294.25722265625 538.2222216796876 290.3127783203125 528 283.31277734375 520.5555556640625L92.423888671875 349.77777734375L283.31277734375 179A41.3333330078125 41.3333330078125 0 0 0 294.25722265625 150.6666669921875A41.3333330078125 41.3333330078125 0 0 0 283.31277734375 122.3888886718751z" />
    <glyph glyph-name="danliexuanze"
      unicode="&#xE60A;"
      horiz-adv-x="1000" d="M369.8638642578125 260.782080078125L231.936953125 444.684626953125C211.711724609375 471.6515986328125 173.4548876953125 477.116861328125 146.4879150390625 456.8916337890625C119.520943359375 436.66640234375 114.0556806640625 398.40956640625 134.28091015625 371.4425947265625L317.3859912109375 127.3024863281251C340.6611660156251 96.2689208984375 386.6028701171876 94.5377314453125 412.1475546875 123.7316572265626L839.3927451171876 612.011873046875C861.590087890625 637.3802666015624 859.0194453125 675.9399150390625 833.6510498046875 698.1372587890625C808.2826582031249 720.3346025390625 769.7230107421875 717.7639599609375 747.5256669921874 692.39556640625L369.8638642578125 260.782080078125z" />
    <glyph glyph-name="dongjie"
      unicode="&#xE613;"
      horiz-adv-x="1000" d="M152.587890625 235.130859375L152.587890625 265.6484375L152.587890625 265.6484375C152.587890625 356.3791259765625 218.578611328125 431.696853515625 305.181625 446.2231962890625L305.17578125 692.89453125C271.4669951171876 692.89453125 244.140625 720.2209013671875 244.140625 753.9296875C244.140625 787.6384736328125 271.4669951171876 814.96484375 305.17578125 814.96484375L671.38671875 814.96484375C705.0955048828125 814.96484375 732.421875 787.6384736328125 732.421875 753.9296875C732.421875 720.2209013671875 705.0955048828125 692.89453125 671.38671875 692.89453125L671.41134375 446.21808203125C757.9993652343751 431.6791865234375 823.974609375 356.368484375 823.974609375 265.6484375L823.974609375 235.130859375C823.974609375 218.2764677734375 810.3114228515625 204.61328125 793.45703125 204.61328125L534.0576171875 204.61328125L534.0576171875 204.61328125L503.4073544921876 -26.2853671875C502.2984287109376 -34.63928515625 494.6272763671875 -40.5125087890625 486.273361328125 -39.4035830078126C479.4392548828125 -38.4963994140625 474.0623291015625 -33.1194736328125 473.1551455078125 -26.2853671875L442.5048828125 204.61328125L183.10546875 204.61328125C166.251076171875 204.61328125 152.587890625 218.2764677734375 152.587890625 235.130859375z" />
    <glyph glyph-name="fanhui"
      unicode="&#xE616;"
      horiz-adv-x="1000" d="M299.22222265625 376H666.27777734375C679.7222216796876 376 690.6666660156251 363.5555556640625 690.6666669921876 348.22222265625S679.7222226562501 320.4444453125001 666.27777734375 320.4444443359376H299.4444443359375L515 143.0555556640626A26.666666992187505 26.666666992187505 0 0 0 519.6111113281249 108.22222265625A21.111111328125002 21.111111328125002 0 0 0 488.0555556640625 103.1666669921875L242.5 305.2222226562501A55.555555664062496 55.555555664062496 0 0 0 242.27777734375 390.8333330078126L485.22222265625 593.2222226562501A21.111111328125002 21.111111328125002 0 0 0 516.72222265625 588.3333330078126A26.666666992187505 26.666666992187505 0 0 0 512.27777734375 553.5L299.27777734375 376zM472.22222265625 -124A472.22222265625004 472.22222265625004 0 1 0 472.22222265625 820.4444443359375A472.22222265625004 472.22222265625004 0 0 0 472.22222265625 -124zM472.22222265625 -68.4444443359375A416.6666669921875 416.6666669921875 0 1 1 472.22222265625 764.888888671875A416.6666669921875 416.6666669921875 0 0 1 472.22222265625 -68.4444443359375z" />
    <glyph glyph-name="faqixinliaotian"
      unicode="&#xE625;"
      horiz-adv-x="1000" d="M701.904296875 753.9296875C769.3218691406249 753.9296875 823.974609375 699.276947265625 823.974609375 631.859375L824.01519140625 410.4355166015626C879.3354521484374 371.82937890625 915.52734375 307.7066523437501 915.52734375 235.130859375C915.52734375 117.1501103515625 819.8850458984375 21.5078125 701.904296875 21.5078125C616.6959775390625 21.5078125 543.1395048828125 71.395306640625 508.8495146484375 143.5556611328125L443.3325322265625 143.578125L315.892544921875 34.7128173828125C290.262296875 12.8182373046875 251.7358115234375 15.84659765625 229.841232421875 41.4768437500001C220.400640625 52.5281953125 215.21374609375 66.5857998046874 215.21374609375 81.1204863281249L215.21374609375 143.578125L183.10546875 143.578125C115.687896484375 143.578125 61.03515625 198.2308652343751 61.03515625 265.6484375L61.03515625 631.859375C61.03515625 699.276947265625 115.687896484375 753.9296875 183.10546875 753.9296875L701.904296875 753.9296875zM701.904296875 692.89453125L183.10546875 692.89453125C149.3966826171875 692.89453125 122.0703125 665.5681611328125 122.0703125 631.859375L122.0703125 265.6484375C122.0703125 231.9396513671875 149.3966826171875 204.61328125 183.10546875 204.61328125L276.24890234375 204.61328125L276.24890234375 81.1204863281249L420.812125 204.61328125L490.449017578125 204.582455078125C489.0204404296875 214.5594052734375 488.28125 224.7588076171875 488.28125 235.130859375C488.28125 353.1116083984375 583.9235478515625 448.75390625 701.904296875 448.75390625C723.1248173828126 448.75390625 743.622662109375 445.6597685546875 762.9712890625 439.89803125L762.939453125 631.859375C762.939453125 665.5681611328125 735.6130830078125 692.89453125 701.904296875 692.89453125zM701.904296875 357.201171875C685.0499052734375 357.201171875 671.38671875 343.5379853515625 671.38671875 326.68359375L671.356201171875 265.6484375L610.3515625 265.6484375C593.4971708984375 265.6484375 579.833984375 251.9852509765625 579.833984375 235.130859375C579.833984375 218.2764677734375 593.4971708984375 204.61328125 610.3515625 204.61328125L671.356201171875 204.61328125L671.38671875 143.578125C671.38671875 126.7237333984375 685.0499052734375 113.060546875 701.904296875 113.060546875C718.7586884765625 113.060546875 732.421875 126.7237333984375 732.421875 143.578125L732.391357421875 204.61328125L793.45703125 204.61328125C810.3114228515625 204.61328125 823.974609375 218.2764677734375 823.974609375 235.130859375C823.974609375 251.9852509765625 810.3114228515625 265.6484375 793.45703125 265.6484375L732.391357421875 265.6484375L732.421875 326.68359375C732.421875 343.5379853515625 718.7586884765625 357.201171875 701.904296875 357.201171875z" />
    <glyph glyph-name="fasong"
      unicode="&#xE62B;"
      horiz-adv-x="1000" d="M972.5131591796874 855.6179521484376C972.5131591796874 855.723201171875 972.4094072265626 855.723201171875 972.4094072265626 855.82844921875C970.23057421875 860.1436279296875 967.1179609375 864.0378134765625 963.2790693359374 867.19526171875C959.5439375 870.352708984375 955.29003125 872.668171875 950.82861328125 874.1416474609375C950.724861328125 874.1416474609375 950.6211015625 874.2468955078125 950.5173505859374 874.2468955078125C948.7535400390624 874.878384765625 946.8859697265626 875.19412890625 945.018400390625 875.5098740234375C944.4996337890624 875.6151220703125 943.980859375 875.825619140625 943.358341796875 875.825619140625C941.5945234375 876.0361162109375 939.93446484375 876.0361162109375 938.170646484375 875.9308671875C937.4443681640626 875.9308671875 936.8218505859375 876.0361162109375 936.0955732421874 875.9308671875C931.115388671875 875.6151220703125 926.135205078125 874.1416474609375 921.5700361328126 871.8261845703125L20.883107421875 418.732421875C12.0640322265625 414.417244140625 5.3200341796875 406.6288740234375 2.207419921875 397.1565263671875C1.273634765625 394.5253173828125 0.8586201171875 391.6836181640625 0.547357421875 388.9471601562501C-0.3864267578125 383.369001953125 -0.1789189453125 377.5803466796875 1.5848955078125 372.1074384765625C4.4900029296875 362.5298505859374 11.026494140625 354.63623046875 19.845568359375 350.1105546875L248.41523828125 228.233064453125C253.91419140625 225.2861162109375 259.9319130859375 223.812638671875 266.1571416015625 223.812638671875C279.9564003906251 223.7073896484375 292.6143671875 231.2852705078125 299.358365234375 243.4940673828126C309.2149785156251 261.7020185546876 302.26347265625 284.3303876953126 284.0027998046876 294.1184814453125L116.959146484375 383.1585126953125L788.76514453125 721.215923828125L379.04130078125 243.9150556640625C378.730037109375 243.59931640625 378.6262861328126 243.1783203125 378.3150224609375 242.8625732421875C368.1471513671875 236.1266845703125 361.5069013671875 224.75987109375 361.5069013671875 211.70908984375L361.5069013671875 -63.0941162109375C361.6106611328125 -73.0927001953125 365.6570556640625 -82.6702958984375 372.7123212890625 -89.721931640625C379.767578125 -96.7735595703125 389.3129316406251 -100.5625 399.1695390625 -100.4572509765626L399.1695390625 -100.5625C419.9203046875001 -100.5625 436.72842578125 -83.8280273437499 436.72842578125 -63.199365234375L436.72842578125 195.9218505859375L884.0111494140624 717.2164892578126L791.0477294921875 29.62959765625L555.215291015625 144.5607011718751C536.6433593749999 153.612052734375 514.336287109375 146.0341796875 504.894685546875 127.5104814453125C500.5370283203126 118.5643798828126 499.914501953125 108.2500488281251 503.1308759765625 98.7777099609375C506.3472412109376 89.30536328125 513.1949951171874 81.6222412109376 522.117822265625 77.4123125L802.356892578125 -59.30518359375C807.544587890625 -61.8311357421875 813.1472900390625 -63.0941162109375 818.9575029296875 -63.0941162109375C819.1650146484375 -63.0941162109375 819.372517578125 -62.9888671875 819.5800292968751 -62.9888671875C820.2025556640625 -62.9888671875 820.9288251953125 -63.199365234375 821.5513505859375 -63.199365234375C840.22704296875 -63.3046142578125 856.1013750000001 -49.51708984375 858.798974609375 -30.78290234375L975.0032548828124 828.14815625C977.5971025390623 836.9890107421875 977.078328125 846.7770986328125 972.5131591796874 855.6179521484376z" />
    <glyph glyph-name="fujian"
      unicode="&#xE62C;"
      horiz-adv-x="1000" d="M368.30217578125 -100.5625C270.242943359375 -100.5625 178.0452822265625 -62.0936240234375 108.683333984375 7.7157089843751L107.462173828125 8.9447470703125C38.2223408203125 78.6311728515625 0 171.4235068359376 0 270.1152207031251C0 368.8069345703126 38.2223408203125 461.5992685546875 107.5842890625 531.4086005859374L439.2516337890625 865.2151953125C453.5392177734375 879.5949345703125 476.7412783203125 879.5949345703125 491.0288623046875 865.2151953125C505.3164462890625 850.8354560546875 505.3164462890625 827.4837431640625 491.0288623046875 813.10400390625L159.3615185546875 479.2974091796875C103.920806640625 423.4991054687501 73.2696640625 349.1423349609376 73.2696640625 270.2381240234376C73.2696640625 191.2110107421875 103.7986904296875 116.9771416015625 159.3615185546875 61.1788369140625L160.5826796875 59.9498046875C216.0233916015625 4.1514999999999 289.9036357421876 -26.6973427734375 368.30217578125 -26.6973427734375C446.82283203125 -26.6973427734375 520.5809599609374 4.0285927734375 576.0216718749999 59.9498046875L849.439634765625 334.8854990234375C884.242724609375 369.913068359375 903.414955078125 416.4935908203126 903.414955078125 466.0238037109375C903.414955078125 515.5540166015626 884.242724609375 562.1345400390625 849.439634765625 597.162109375C814.6365439453125 632.1896787109375 768.3545410156249 651.4855673828125 719.141748046875 651.4855673828125C669.9289580078125 651.4855673828125 623.6469541015624 632.1896787109375 588.84386328125 597.162109375L344.1231875 350.8629873046874C315.30378515625 321.857701171875 315.30378515625 274.7855634765625 344.1231875 245.78027734375C372.942587890625 216.7749912109375 419.7130566406251 216.7749912109375 448.53245703125 245.78027734375L665.1664296875 463.811537109375C679.4540136718749 478.191275390625 702.6560751953125 478.191275390625 716.9436591796875 463.811537109375C731.2312431640626 449.4317978515625 731.2312431640626 426.0800839843751 716.9436591796875 411.7003447265626L500.3096865234376 193.6690859375C442.9151162109375 135.9043251953125 349.618412109375 135.9043251953125 292.3459580078125 193.6690859375C234.9513876953125 251.4338505859376 234.9513876953125 345.332318359375 292.3459580078125 402.9741787109375L536.944517578125 649.150396484375C637.32395703125 750.1772822265625 800.7153037109375 750.1772822265625 901.0947470703125 649.150396484375C949.696958984375 600.234703125 976.5625 535.0957138671874 976.5625 465.900900390625C976.5625 396.7060869140625 949.8190712890625 331.56709765625 901.0947470703125 282.6514033203125L627.9210166015625 7.7157089843751C558.5590683593749 -62.0936240234375 466.3614091796875 -100.5625 368.30217578125 -100.5625z" />
    <glyph glyph-name="fuzhidaima"
      unicode="&#xE611;"
      horiz-adv-x="1000" d="M818.6865634765626 784.447265625C834.8862548828125 784.447265625 844.6144619140625 782.560494140625 854.7834628906251 777.098408203125C864.58487890625 771.8337626953125 872.4508671875 763.93357421875 877.6927216796875 754.0895439453125C882.4513583984375 745.1529814453124 884.4844912109376 736.555369140625 884.918423828125 723.645888671875L885.009765625 717.8357021484375L885.009765625 179.6721103515625C885.009765625 163.401986328125 883.1311611328125 153.6314814453125 877.6927216796875 143.418267578125C872.4508671875 133.5742373046876 864.58487890625 125.67405078125 854.7834628906251 120.4094052734374C845.8855869140625 115.6300781250001 837.3251923828126 113.5881044921874 824.47159765625 113.1522861328125L818.6865634765626 113.060546875L701.904296875 113.060546875L701.904296875 57.6017978515625C701.904296875 43.3654384765625 700.4659912109375 34.1053525390626 696.4630830078124 25.17071875L694.5872529296875 21.347955078125C689.3453984375 11.5039248046876 681.47941015625 3.60373828125 671.6779941406251 -1.6609072265626C661.5089931640625 -7.1229951171875 651.7807861328125 -9.009765625 635.5810947265626 -9.009765625L635.5810947265626 -9.009765625L157.875935546875 -9.009765625C141.67624609375 -9.009765625 131.9480380859375 -7.1229951171875 121.7790380859375 -1.6609072265626C111.9776220703125 3.60373828125 104.1116328125 11.5039248046876 98.8697783203125 21.347955078125C93.431337890625 31.5611689453125 91.552734375 41.331673828125 91.552734375 57.6017978515625L91.552734375 57.6017978515625L91.552734375 595.7653896484376C91.552734375 612.0355136718749 93.431337890625 621.806017578125 98.8697783203125 632.01923046875C104.1116328125 641.86326171875 111.9776220703125 649.7634501953125 121.7790380859375 655.028095703125C131.9480380859375 660.490181640625 141.67624609375 662.376953125 157.875935546875 662.376953125L157.875935546875 662.376953125L274.658203125 662.376953125L274.658203125 717.8357021484375C274.658203125 734.105826171875 276.536806640625 743.876330078125 281.9752470703125 754.0895439453125C287.2171025390625 763.93357421875 295.0830908203125 771.8337626953125 304.8845068359375 777.098408203125C313.7823818359375 781.8777333984375 322.3427763671876 783.919708984375 335.19637109375 784.355525390625L340.9814052734376 784.447265625L818.6865634765626 784.447265625zM639.9861240234375 603.9704130859375L152.0230966796875 603.9379404296875L149.8849052734375 603.7911640625L149.7387646484375 601.6436757812501L149.7387646484375 51.7235107421875L149.8849052734375 49.6052158203125L152.0230966796875 49.4292480468749L635.5810947265626 49.3716884765624C638.3652099609375 49.3716884765624 640.198458984375 49.3897578125 641.433935546875 49.4292480468749L641.433935546875 49.4292480468749L643.543060546875 49.6052158203125L643.718267578125 51.7235107421875L643.7755771484375 595.7653896484376C643.7755771484375 598.561609375 643.757583984375 600.4028291015625 643.718267578125 601.6436757812501L643.718267578125 601.6436757812501L643.543060546875 603.7911640625L639.9861240234375 603.9704130859375zM824.539404296875 726.0082529296875L335.128564453125 726.0082529296875L332.9903750000001 725.8614765625L332.844232421875 723.7139882812501L332.794189453125 662.376953125L635.5810947265626 662.376953125C649.755826171875 662.376953125 658.97582421875 660.9323935546875 667.8717802734375 656.9120830078125L671.6779941406251 655.028095703125C681.47941015625 649.7634501953125 689.3453984375 641.86326171875 694.5872529296875 632.01923046875C700.0256923828125 621.806017578125 701.904296875 612.0355136718749 701.904296875 595.7653896484376L701.904296875 595.7653896484376L701.904296875 171.47119140625L824.539404296875 171.4995605468749L826.648529296875 171.6755283203125L826.823736328125 173.7938232421875L826.8810458984375 179.6721103515625L826.823736328125 723.7139882812501L826.648529296875 725.8614765625L824.539404296875 726.0082529296875zM579.833984375 235.130859375C596.6883759765625 235.130859375 610.3515625 221.4676728515625 610.3515625 204.61328125C610.3515625 188.9627744140626 598.57055078125 176.0638671875 583.3929775390625 174.3010166015625L579.833984375 174.095703125L244.140625 174.095703125C227.286232421875 174.095703125 213.623046875 187.7588896484375 213.623046875 204.61328125C213.623046875 220.2637880859375 225.40405859375 233.1626953125 240.581630859375 234.9255458984375L244.140625 235.130859375L579.833984375 235.130859375zM579.833984375 387.71875C596.6883759765625 387.71875 610.3515625 374.0555634765626 610.3515625 357.201171875C610.3515625 341.5506650390626 598.57055078125 328.6517578125 583.3929775390625 326.8889072265626L579.833984375 326.68359375L244.140625 326.68359375C227.286232421875 326.68359375 213.623046875 340.3467802734375 213.623046875 357.201171875C213.623046875 372.8516787109375 225.40405859375 385.7505859375 240.581630859375 387.5134365234375L244.140625 387.71875L579.833984375 387.71875zM579.833984375 509.7890625C596.6883759765625 509.7890625 610.3515625 496.1258759765625 610.3515625 479.271484375C610.3515625 463.6209775390625 598.57055078125 450.7220703125 583.3929775390625 448.9592197265625L579.833984375 448.75390625L244.140625 448.75390625C227.286232421875 448.75390625 213.623046875 462.4170927734375 213.623046875 479.271484375C213.623046875 494.9219912109375 225.40405859375 507.8208984375 240.581630859375 509.5837490234375L244.140625 509.7890625L579.833984375 509.7890625z" />
    <glyph glyph-name="gengduo"
      unicode="&#xE619;"
      horiz-adv-x="1000" d="M497.704005 594.778236875C531.73495375 593.944549375 563.543776875 611.6232375 580.804475625 640.96376625C598.065175 670.304295 598.065175 706.695705 580.804475625 736.036233625C563.543776875 765.37676225 531.73495375 783.0554507875 497.704005 782.2217630295625C446.837045375 780.97562786875 406.25 739.3821575625 406.25 688.5C406.25 637.6178425 446.837045375 596.024371875 497.704005 594.778236875L497.704005 594.778236875zM406.25 376C406.25 324.223305 448.2233046875 282.25 500 282.25C551.776695 282.25 593.75 324.223305 593.75 376C593.75 427.776695 551.776695 469.75 500 469.75C448.2233046875 469.75 406.25 427.776695 406.25 376L406.25 376zM500 -30.25C551.776695 -30.25 593.75 11.72330625 593.75 63.5C593.75 115.2766937500001 551.776695 157.25 500 157.25C448.2233046875 157.25 406.25 115.2766937500001 406.25 63.5C406.25 11.72330625 448.2233046875 -30.25 500 -30.25z" />
    <glyph glyph-name="guanbi"
      unicode="&#xE61F;"
      horiz-adv-x="1000" d="M232.3272529296875 686.4948544921875L235.2022333984375 683.9561396484376L488.28125 430.901123046875L741.3602666015626 683.9561396484376C753.278125 695.8739951171875 772.60078125 695.8739951171875 784.5186396484374 683.9561396484376C795.5197392578125 672.9550419921875 796.3659726562499 655.6445234375 787.0573544921875 643.6727470703124L784.5186396484374 640.7977666015624L531.463623046875 387.71875L784.5186396484374 134.6397333984375C796.4364931640625 122.721875 796.4364931640625 103.3992187500001 784.5186396484374 91.4813603515626C773.5175410156249 80.4802607421875 756.2070253906251 79.6340273437501 744.235248046875 88.9426455078125L741.3602666015626 91.4813603515626L488.28125 344.536376953125L235.2022333984375 91.4813603515626C223.2843779296875 79.5635068359375 203.961716796875 79.5635068359375 192.0438603515625 91.4813603515626C181.0427626953125 102.4824589843751 180.1965244140625 119.7929746093749 189.5051455078125 131.764751953125L192.0438603515625 134.6397333984375L445.098876953125 387.71875L192.0438603515625 640.7977666015624C180.1260048828125 652.7156220703125 180.1260048828125 672.038283203125 192.0438603515625 683.9561396484376C202.1282001953125 694.0404794921875 217.514205078125 695.591916015625 229.229826171875 688.6104501953125L232.3272529296875 686.4948544921875z" />
    <glyph glyph-name="guanbiquanping"
      unicode="&#xE609;"
      horiz-adv-x="1000" d="M665.3062353515626 152.0841796875V-67.9724580078125C665.3062353515626 -98.6793271484375 670.081625 -122.7228603515624 639.43028515625 -122.7228603515624C608.8344716796876 -122.7228603515624 611.111111328125 -98.6793261718749 611.111111328125 -67.9724580078125V209.6665000000001C611.111111328125 226.1027265625001 617.885501953125 239.3738681640627 628.6023652343749 248.5359541015626A55.139096679687505 55.139096679687505 0 0 0 668.0826249999999 265.1942919921876H943.7225830078124C974.318396484375 265.1942919921876 998.5285136718747 267.1932929687501 998.5285136718747 236.5419511718751C998.5285136718747 205.83508203125 974.318396484375 213.2202783203126 943.7225830078124 213.2202783203126H719.3903046874999L665.3062353515625 152.1397080078125zM334.082958984375 150.52940234375L279.9433613281251 211.7210283203125H55.666611328125C25.0707978515625 211.7210283203125 0.8606806640625 204.2803046875 0.8606806640625 234.9871728515625C0.8606806640625 265.638513671875 25.0707978515625 263.5839853515625 55.666611328125 263.5839853515625H331.3065693359375C346.7988232421875 263.5839853515625 360.736298828125 257.1982890625 370.73130078125 246.9256484375A49.64184570312499 49.64184570312499 0 0 0 388.2780830078125 208.0561943359375V-69.5827646484375C388.2780830078125 -100.2341054687502 390.55472265625 -124.2776396484377 359.9589091796875 -124.277638671875C329.307568359375 -124.277638671875 334.0829580078125 -100.2341044921875 334.082958984375 -69.5272363281251V150.5294023437499zM665.3062353515626 601.137431640625L719.4458330078126 540.0013330078125H943.7225830078125C974.318396484375 540.0013330078125 998.528513671875 547.386529296875 998.528513671875 516.6796601562501C998.528513671875 486.0838466796875 974.318396484375 488.08284765625 943.7225830078125 488.08284765625H668.082625A55.139096679687505 55.139096679687505 0 0 0 628.602365234375 504.7411845703125A49.64184570312499 49.64184570312499 0 0 0 611.1111113281252 543.610638671875V821.24959765625C611.0555830078125 851.9009384765625 608.8344716796876 876 639.3747568359374 876C670.0260976562499 876 665.2507080078125 851.9009384765625 665.2507080078125 821.24959765625V601.137431640625zM333.4721523437501 601.137431640625V821.24959765625C333.416625 851.9009384765625 328.6967626953125 876 359.3481035156251 876C389.888388671875 876 387.66727734375 851.9009384765625 387.66727734375 821.24959765625V543.610638671875A49.64184570312499 49.64184570312499 0 0 0 370.1760234375 504.7411845703125A55.139096679687505 55.139096679687505 0 0 0 330.6402353515625 488.08284765625H55.0558056640625C24.40446484375 488.08284765625 0.249875 486.0838466796875 0.249875 516.7351875S24.40446484375 540.0013320312501 55.0558056640625 540.0013330078125H279.3325556640625L333.416625 601.137431640625z" />
    <glyph glyph-name="jiazaizhong"
      unicode="&#xE62A;"
      horiz-adv-x="1000" d="M437.5 876C679.124575 876 875 680.124578125 875 438.5C875 196.875425 679.124575 1 437.5 1C195.875421875 1 0 196.875425 0 438.5C0 680.124578125 195.875421875 876 437.5 876zM437.5 759.333333125C260.3086425 759.333333125 116.666666875 615.6913575 116.666666875 438.5C116.666666875 261.3086425 260.3086425 117.66666875 437.5 117.66666875C614.6913575 117.66666875 758.33333125 261.3086425 758.33333125 438.5C758.33333125 615.6913575 614.6913575 759.333333125 437.5 759.333333125zM500 813.5C741.624575 813.5 937.5 617.624578125 937.5 376C937.5 134.375425 741.624575 -61.5 500 -61.5C258.3754218750001 -61.5 62.5 134.375425 62.5 376L179.166666875 376C179.166666875 198.8086425 322.8086425 55.16666875 500 55.16666875C677.1913575 55.16666875 820.83333125 198.8086425 820.83333125 376C820.83333125 553.1913575 677.1913575 696.833333125 500 696.833333125L500 813.5z" />
    <glyph glyph-name="lajitong"
      unicode="&#xE607;"
      horiz-adv-x="1000" d="M964.3156714285714 759.3333335714285L749.9241285714286 759.3333335714285L749.9241285714286 842.6666666428572C749.9241285714286 861.0761583571428 733.9397214285715 876 714.2219571428571 876L285.7958892857143 876C266.0781242857143 876 250.0937171428572 861.0761583571428 250.0937171428572 842.6666666428572L250.0937171428572 759.3333335714285L35.7021722857143 759.3333335714285C15.984407 759.3333335714285 0 744.4094914285714 0 726C0 707.5905085714286 15.984407 692.6666664285715 35.7021722857143 692.6666664285715L73.3679642857143 692.6666664285715L160.3027535714286 -35.1C166.3573978571429 -85.7124928571429 212.18458 -124 266.7309292857143 -124L733.2512142857142 -124C787.8049928571428 -124 833.6434642857142 -85.7176928571429 839.715092857143 -35.1L926.6498857142856 692.6666664285715L964.2799714285713 692.6666664285715C977.0351285714286 692.6607121428572 988.8247857142856 699.0085078571428 995.2078857142858 709.3188992857142C1001.5909857142858 719.6292914285714 1001.597792857143 732.3358864285715 995.2257357142857 742.6522328571428C988.8536785714286 752.9685792857143 977.0708285714286 759.3273785714285 964.3156714285714 759.3333335714285zM321.4980614285714 809.3333333571429L678.5197850000001 809.3333333571429L678.5197850000001 759.3333335714285L321.4980614285714 759.3333335714285L321.4980614285714 809.3333333571429zM768.7748785714286 -27.7C766.7561571428572 -44.57505 751.4735785714286 -57.3333357142858 733.2869142857143 -57.3333357142858L266.7309292857143 -57.3333357142858C248.5442671428572 -57.3333357142858 233.2616892857143 -44.57505 231.24297 -27.7L145.200735 692.6666664285715L854.8171142857143 692.6666664285715L768.7748785714286 -27.7L768.7748785714286 -27.7zM607.11544 54.1999999999999C626.8332057142858 54.1999999999999 642.8176128571429 69.1238428571429 642.8176128571429 87.5333357142857L642.8176128571429 576.9333335714286C642.8176128571429 595.342825 626.8332057142858 610.2666664285714 607.11544 610.2666664285714C587.3976749999999 610.2666664285714 571.4132678571428 595.342825 571.4132678571428 576.9333335714286L571.4132678571428 87.5333357142857C571.4132678571428 69.1238428571429 587.3976749999999 54.1999999999999 607.11544 54.1999999999999zM410.7534928571429 54.1999999999999C430.4712578571429 54.1999999999999 446.455665 69.1238428571429 446.455665 87.5333357142857L446.455665 576.9333335714286C446.455665 595.342825 430.4712578571429 610.2666664285714 410.7534928571429 610.2666664285714C391.0357271428572 610.2666664285714 375.05132 595.342825 375.05132 576.9333335714286L375.05132 87.5333357142857C375.05132 69.1238428571429 391.0357271428572 54.1999999999999 410.7534928571429 54.1999999999999z" />
    <glyph glyph-name="lietujiazaishibai"
      unicode="&#xE614;"
      horiz-adv-x="1076.923076923077" d="M604.6153846153846 197.5384615384616C607.6923076923077 200.6153846153847 609.9230769230769 204.4615384615385 611.5384615384615 208.3846153846154C619.2307692307693 222.9230769230769 616.8461538461538 241.4615384615385 604.6153846153846 253.7692307692307L326.1538461538462 532.1538461538462L601.5384615384615 807.5384615384615C617.6923076923076 823.6923076923077 617.6923076923076 848.2307692307693 601.5384615384615 864.3846153846154C593.8461538461538 872.1538461538462 583.8461538461538 876 573.8461538461538 876L153.8461538461539 876C69.2307692307692 876 0 806.7692307692307 0 722.1538461538462L0 29.8461538461539C0 -54.7692307692307 69.2307692307692 -124 153.8461538461539 -124L270 -124C280.8461538461538 -124 290.8461538461539 -120.1538461538461 298.4615384615385 -112.4615384615383L363.0769230769231 -47.0769230769231L601.6153846153845 192.9230769230769C603.0769230769231 194.4615384615386 603.0769230769231 196 604.6153846153846 197.5384615384616zM250 -47.0769230769231L153.8461538461539 -47.0769230769231C111.5384615384615 -47.0769230769231 76.9230769230769 -12.4615384615385 76.9230769230769 29.8461538461539L76.9230769230769 722.1538461538462C76.9230769230769 764.4615384615385 111.5384615384615 799.0769230769231 153.8461538461539 799.0769230769231L480 799.0769230769231L241.5384615384616 561.3846153846155C229.2307692307693 549.0769230769231 226.923076923077 530.6153846153846 234.6153846153846 516C236.1538461538462 512.1538461538462 238.4615384615385 508.3076923076923 241.5384615384616 505.2307692307692C243.0769230769231 503.6923076923077 243.0769230769231 502.1538461538461 244.6153846153846 500.6153846153846L520.7692307692307 224.4615384615385L250 -47.0769230769231zM923.076923076923 876L804.6153846153846 876C793.8461538461538 876 783.7692307692307 872.1538461538462 776.1538461538461 864.4615384615385L710.7692307692307 799.0769230769231L472.3076923076923 561.3846153846155C452.4615384615384 539.7692307692307 456.1538461538461 521.0769230769231 475.3846153846154 500.6153846153846L751.5384615384614 224.4615384615385L472.3076923076923 -55.5384615384614C456.9230769230769 -70.9230769230769 456.9230769230769 -96.2307692307692 472.3076923076923 -112.3846153846154C480 -120.1538461538461 490.7692307692307 -124 500.7692307692307 -124L923.076923076923 -124C1007.6923076923076 -124 1076.923076923077 -54.7692307692307 1076.923076923077 29.8461538461539L1076.923076923077 722.1538461538462C1076.923076923077 806.7692307692307 1007.6923076923076 876 923.076923076923 876zM1000 29.8461538461539C1000 -12.4615384615385 965.3846153846154 -47.0769230769231 923.076923076923 -47.0769230769231L593.8461538461538 -47.0769230769231L832.3846153846154 192.9230769230769C850.6923076923076 210.7692307692308 850.0769230769231 237.8461538461539 835.4615384615385 253.6923076923078L556.9230769230769 532.1538461538462L823.8461538461539 799.0769230769231L923.076923076923 799.0769230769231C965.3846153846154 799.0769230769231 1000 764.4615384615385 1000 722.1538461538462L1000 29.8461538461539z" />
    <glyph glyph-name="shanchu"
      unicode="&#xE606;"
      horiz-adv-x="1000" d="M500 876C776.142375 876 1000 652.142375 1000 376C1000 99.857625 776.142375 -124 500 -124C223.857625 -124 0 99.857625 0 376C0 652.142375 223.857625 876 500 876zM321.1294491666667 613.7961158333334C304.8576033333333 630.0679616666666 278.47573 630.0679616666666 262.2038841666667 613.7961158333334L257.3825966666667 608.0254583333333C246.1329258333334 591.7864466666667 247.7400216666667 569.3344133333334 262.2038841666667 554.8705508333334L441.0833333333333 376L262.2038841666667 197.1294491666668C245.9320383333333 180.8576033333334 245.9320383333333 154.47573 262.2038841666667 138.2038841666668C278.47573 121.9320383333334 304.8576033333333 121.9320383333334 321.1294491666667 138.2038841666668L500 317.0833333333334L678.8705508333333 138.2038841666668C695.1423966666666 121.9320383333334 721.52427 121.9320383333334 737.7961158333333 138.2038841666668L742.6174033333333 143.9745416666667C753.8670741666666 160.2135533333334 752.2599783333333 182.6655866666668 737.7961158333333 197.1294491666668L558.9166666666666 376L737.7961158333333 554.8705508333334C754.0679616666666 571.1423966666666 754.0679616666666 597.52427 737.7961158333333 613.7961158333334C721.52427 630.0679616666666 695.1423966666666 630.0679616666666 678.8705508333333 613.7961158333334L500 434.9166666666667z" />
    <glyph glyph-name="shangla"
      unicode="&#xE622;"
      horiz-adv-x="1000" d="M527.6666669921874 447.0555556640625L296.4444443359374 215.8333330078125A35.3333330078125 35.3333330078125 0 0 0 246.9999999999999 215.8333330078125A34.888888671875 34.888888671875 0 0 0 246.9444443359374 265.27777734375L499.5555556640624 517.9444443359375A35.0555556640625 35.0555556640625 0 0 0 557.3333330078124 504.9444443359375L805.5555556640624 256.611111328125C817.2777783203123 244.9444443359374 817.5555556640624 225.0555556640625 805.4999999999999 213A31.22222265625 31.22222265625 0 0 0 761.8333330078124 212.888888671875L527.6666669921874 447.111111328125z" />
    <glyph glyph-name="shuaxin"
      unicode="&#xE60E;"
      horiz-adv-x="1000" d="M370.5 26C280 69.77777734375 202.611111328125 165.8333330078126 177.111111328125 266C153.111111328125 360.22222265625 171 462.22222265625 226.4444443359375 547.77777734375C274.111111328125 621.2222216796874 340.888888671875 670.7222216796874 438.6666669921875 705.1111113281249C462.7777783203124 713.6111113281249 482.5555556640625 723.0555556640625 482.5555556640625 726.1666669921875C482.5555556640625 729.22222265625 471.888888671875 742.3888896484375 458.8333330078125 755.388888671875C432.166666015625 781.9444443359375 429.9444443359375 791.4444443359375 446.72222265625 808.388888671875C466.1666669921875 828.0555556640625 482.4444453125 824.3333330078125 516.72222265625 792.4444443359375C533.1666669921875 777.1666669921875 562.22222265625 752.1111113281249 581.27777734375 736.7777773437499C618.6111103515625 706.7777773437499 627.7777773437499 693.2222216796874 623.1666669921875 674.6666669921874C620.5555556640625 664.4444443359375 566.6666669921875 593.8333330078125 526.6666669921874 548.22222265625C507.8888896484375 526.833333984375 495.333333984375 521.2777783203124 480.9444443359375 527.8888886718751A43.33333300781251 43.33333300781251 0 0 0 463.611111328125 544C456.6666669921875 557.22222265625 462.9444443359375 571.1111113281249 491.72222265625 605.888888671875C502.2777783203125 618.666666015625 511 630.888888671875 511 632.9444443359375C511 640.5555556640625 485.9444443359375 642.7222216796874 457.3333330078125 637.5555556640625C407.27777734375 628.5555556640625 362.7777773437501 603.388888671875 318.6666669921875 559.22222265625C296.6666669921875 537.1666669921875 274.5 509.6666669921875 267.7222226562501 496.0555556640625C219.9444453125001 400 222.2777783203126 289.22222265625 273.9444443359376 200.388888671875C297.8333330078126 159.4444443359375 353.2777773437501 106.77777734375 394.0000000000001 86.5C488.5555556640626 39.3888886718751 593.5555556640626 42.1666669921875 681.7777773437501 94.0555556640626C787.5000000000001 156.1111113281251 847.2222216796877 288.8333330078126 822.4444443359375 406.4444443359376C813.9444443359376 447 788.8888886718751 502.388888671875 764.5555556640626 534.6666669921875C742.3888886718751 564 736.9444443359375 576.8888896484375 740.5 591.3333330078125C744.3333330078126 606.7222216796874 766.2222226562501 615.166666015625 781.888888671875 607.22222265625C809.666666015625 593.2777783203124 862.3333330078125 509.8888896484375 879.3888886718751 452.9444443359375C893 407.6666669921875 891.7777773437501 301.5 877.1666669921875 253.77777734375C864.3888896484375 212.1111103515626 832 147.9444443359375 809.1666669921875 118.9444443359375C785.5555556640626 88.9444443359375 732.5 45.5 695.8333330078126 25.9444443359375C638.0555556640626 -4.7222226562499 555.7777773437501 -19.0555556640625 487.2777773437501 -10.388888671875C442.0555546875002 -4.666666015625 418.7777773437501 2.611111328125 370.5000000000001 26z" />
    <glyph glyph-name="tixing"
      unicode="&#xE627;"
      horiz-adv-x="1000" d="M500 813.5C741.624575 813.5 937.5 617.624578125 937.5 376C937.5 134.375425 741.624575 -61.5 500 -61.5C258.3754218750001 -61.5 62.5 134.375425 62.5 376C62.5 617.624578125 258.3754218750001 813.5 500 813.5zM500 188.5C474.1116525 188.5 453.125 167.5133500000001 453.125 141.625C453.125 115.73665 474.1116525 94.75 500 94.75C525.8883475 94.75 546.875 115.73665 546.875 141.625C546.875 167.5133500000001 525.8883475 188.5 500 188.5zM500 657.25C482.741101875 657.25 468.75 643.258898125 468.75 626L468.75 282.25C468.75 264.9911018749999 482.741101875 251 500 251C517.258898125 251 531.25 264.9911018749999 531.25 282.25L531.25 626C531.25 643.258898125 517.258898125 657.25 500 657.25z" />
    <glyph glyph-name="toubudaohang_guanbi"
      unicode="&#xE60F;"
      horiz-adv-x="1000" d="M452.0409658203125 392.026080078125L143.7737939453125 700.2932509765625C133.18014453125 710.8869013671874 133.18014453125 728.0626005859375 143.7737939453125 738.65625C154.367443359375 749.2498994140625 171.543142578125 749.2498994140625 182.1367919921875 738.65625L490.4039638671875 430.389078125L798.6711367187501 738.65625C809.2647841796875 749.2498994140625 826.440484375 749.2498994140625 837.03413671875 738.65625C847.6277832031251 728.0626005859375 847.6277832031251 710.8869013671874 837.03413671875 700.2932509765625L528.7669619140624 392.026080078125L837.03413671875 83.7589082031251C847.6277832031251 73.1652558593751 847.6277832031251 55.989556640625 837.03413671875 45.3959091796875C826.440484375 34.8022626953125 809.2647841796875 34.8022626953125 798.6711367187501 45.3959091796875L490.4039638671875 353.66308203125L182.1367919921875 45.3959091796875C171.543142578125 34.8022626953125 154.367443359375 34.8022626953125 143.7737939453125 45.3959091796875C133.18014453125 55.989556640625 133.18014453125 73.1652558593751 143.7737939453125 83.7589082031251L452.0409658203125 392.026080078125z" />
    <glyph glyph-name="wangye"
      unicode="&#xE61C;"
      horiz-adv-x="1000" d="M854.4921875 753.9296875C888.2009736328125 753.9296875 915.52734375 726.6033173828125 915.52734375 692.89453125L915.52734375 82.54296875C915.52734375 48.8341826171875 888.2009736328125 21.5078125 854.4921875 21.5078125L122.0703125 21.5078125C88.3615263671875 21.5078125 61.03515625 48.8341826171875 61.03515625 82.54296875L61.03515625 692.89453125C61.03515625 726.6033173828125 88.3615263671875 753.9296875 122.0703125 753.9296875L854.4921875 753.9296875zM854.4921875 509.7890625L122.0703125 509.7890625L122.0703125 82.54296875L854.4921875 82.54296875L854.4921875 509.7890625zM549.31640625 265.6484375C566.1707978515625 265.6484375 579.833984375 251.9852509765625 579.833984375 235.130859375C579.833984375 218.2764677734375 566.1707978515625 204.61328125 549.31640625 204.61328125L305.17578125 204.61328125C288.321388671875 204.61328125 274.658203125 218.2764677734375 274.658203125 235.130859375C274.658203125 251.9852509765625 288.321388671875 265.6484375 305.17578125 265.6484375L549.31640625 265.6484375zM671.38671875 418.236328125C688.2411103515625 418.236328125 701.904296875 404.5731416015625 701.904296875 387.71875C701.904296875 370.8643583984375 688.2411103515625 357.201171875 671.38671875 357.201171875L305.17578125 357.201171875C288.321388671875 357.201171875 274.658203125 370.8643583984375 274.658203125 387.71875C274.658203125 404.5731416015625 288.321388671875 418.236328125 305.17578125 418.236328125L671.38671875 418.236328125zM854.4921875 692.89453125L122.0703125 692.89453125L122.0703125 570.82421875L854.4921875 570.82421875L854.4921875 692.89453125zM213.623046875 662.376953125C230.477439453125 662.376953125 244.140625 648.713767578125 244.140625 631.859375C244.140625 615.004982421875 230.477439453125 601.341796875 213.623046875 601.341796875C196.768654296875 601.341796875 183.10546875 615.004982421875 183.10546875 631.859375C183.10546875 648.713767578125 196.768654296875 662.376953125 213.623046875 662.376953125zM305.17578125 662.376953125C322.0301728515625 662.376953125 335.693359375 648.713767578125 335.693359375 631.859375C335.693359375 615.004982421875 322.0301728515625 601.341796875 305.17578125 601.341796875C288.321388671875 601.341796875 274.658203125 615.004982421875 274.658203125 631.859375C274.658203125 648.713767578125 288.321388671875 662.376953125 305.17578125 662.376953125zM396.728515625 662.376953125C413.5829072265625 662.376953125 427.24609375 648.713767578125 427.24609375 631.859375C427.24609375 615.004982421875 413.5829072265625 601.341796875 396.728515625 601.341796875C379.8741240234375 601.341796875 366.2109375 615.004982421875 366.2109375 631.859375C366.2109375 648.713767578125 379.8741240234375 662.376953125 396.728515625 662.376953125z" />
    <glyph glyph-name="weidongjie"
      unicode="&#xE612;"
      horiz-adv-x="1000" d="M896.5199765625 520.6304316406249C921.8631318359375 495.28727734375 921.8631318359375 454.1979033203125 896.5199765625 428.854748046875C871.176822265625 403.5115937500001 830.087451171875 403.5115937500001 804.7442958984376 428.854748046875L619.3049443359375 243.378375C673.4733828125001 167.3484892578125 666.454736328125 61.1259853515626 598.24901171875 -7.0797392578124L575.3050908203124 -30.02366015625C562.6335146484374 -42.6952392578125 542.0888271484375 -42.6952392578125 529.4172490234374 -30.02366015625L334.393923828125 164.9996640625L137.75455078125 14.4476435546875C130.6401357421875 9.00066796875 120.4571171875 10.3523955078125 115.010142578125 17.4668125000001C110.554125 23.2869169921876 110.554125 31.3719453125 115.010142578125 37.1920498046875L265.5621640625 233.8314238281251L70.53883984375 428.854748046875C57.86726171875 441.5263271484375 57.86726171875 462.0710146484375 70.53883984375 474.74258984375L93.482759765625 497.6865107421875C161.6964853515625 565.9002353515625 267.93590625 572.9125263671874 343.9676240234375 518.7233828125L529.4172490234374 704.1817958984375C504.07409375 729.5249501953125 504.07409375 770.6143232421875 529.4172490234374 795.9574775390624C554.7604033203125 821.3006318359375 595.84977734375 821.3006318359375 621.1929326171876 795.9574775390624L896.5199765625 520.6304316406249zM552.361169921875 38.8080996093751C595.7864072265625 82.2333408203125 602.476638671875 149.7041015625 570.0734707031249 200.3612822265625L566.452001953125 205.7226376953125L534.5950927734375 250.4364501953125L804.7397158203124 520.6350126953125L621.1918457031251 704.1828828125L351.0246396484375 434.002875L306.3029453125 465.8768125C256.898169921875 501.0884677734375 189.2105859375 497.11435546875 144.1140634765625 456.311251953125L139.3706005859375 451.7986689453125L552.361169921875 38.8080996093751z" />
    <glyph glyph-name="wendang"
      unicode="&#xE61B;"
      horiz-adv-x="1000" d="M671.5692568359375 814.96484375L854.494552734375 631.87055078125L854.494552734375 21.5078125C854.494552734375 -12.2009736328125 827.1681826171875 -39.52734375 793.459396484375 -39.52734375L152.587890625 -39.52734375C118.8791044921875 -39.52734375 91.552734375 -12.2009736328125 91.552734375 21.5078125L91.552734375 753.9296875C91.552734375 787.6384736328125 118.8791044921875 814.96484375 152.587890625 814.96484375L671.5692568359375 814.96484375zM610.3515625 753.9296875L152.587890625 753.9296875L152.587890625 21.5078125L793.459396484375 21.5078125L793.459396484375 570.82421875L679.7096953125 570.82421875C641.4042568359375 570.82421875 610.3515625 601.876912109375 610.3515625 640.1823505859375L610.3515625 753.9296875zM640.869140625 296.166015625C657.7235322265625 296.166015625 671.38671875 282.5028291015625 671.38671875 265.6484375C671.38671875 248.7940458984375 657.7235322265625 235.130859375 640.869140625 235.130859375L305.17578125 235.130859375C288.321388671875 235.130859375 274.658203125 248.7940458984375 274.658203125 265.6484375C274.658203125 282.5028291015625 288.321388671875 296.166015625 305.17578125 296.166015625L640.869140625 296.166015625zM488.28125 509.7890625C505.1356416015626 509.7890625 518.798828125 496.1258759765625 518.798828125 479.271484375C518.798828125 462.4170927734375 505.1356416015626 448.75390625 488.28125 448.75390625L305.17578125 448.75390625C288.321388671875 448.75390625 274.658203125 462.4170927734375 274.658203125 479.271484375C274.658203125 496.1258759765625 288.321388671875 509.7890625 305.17578125 509.7890625L488.28125 509.7890625zM671.38671875 728.783203125L671.38671875 640.1823505859375C671.38671875 635.5856982421875 675.1130429687499 631.859375 679.7096953125 631.859375L768.24951171875 631.859375L671.38671875 728.783203125z" />
    <glyph glyph-name="wenjian"
      unicode="&#xE61D;"
      horiz-adv-x="1000" d="M61.03515625 692.89453125C61.03515625 726.6033173828125 88.3615263671875 753.9296875 122.0703125 753.9296875L451.80108984375 753.9296875C467.2995732421875 753.9296875 482.2176396484375 748.03369140625 493.5284306640625 737.4379873046876L606.231689453125 631.859375L854.4921875 631.859375C888.2009736328125 631.859375 915.52734375 604.5330048828125 915.52734375 570.82421875L915.52734375 82.54296875C915.52734375 48.8341826171875 888.2009736328125 21.5078125 854.4921875 21.5078125L122.0703125 21.5078125C88.3615263671875 21.5078125 61.03515625 48.8341826171875 61.03515625 82.54296875L61.03515625 692.89453125zM854.4921875 570.82421875L122.0703125 570.82421875L122.0703125 82.54296875L854.4921875 82.54296875L854.4921875 570.82421875zM451.80108984375 692.89453125L122.0703125 692.89453125L122.0703125 631.859375L516.9677734375 631.859375L451.80108984375 692.89453125z" />
    <glyph glyph-name="xiala"
      unicode="&#xE623;"
      horiz-adv-x="1000" d="M527.6666669921874 253L296.4444443359375 484.22222265625A35.3333330078125 35.3333330078125 0 0 1 247 484.22222265625A34.888888671875 34.888888671875 0 0 1 246.9444443359375 434.77777734375L499.5555556640625 182.1111113281249A35.0555556640625 35.0555556640625 0 0 1 557.3333330078125 195.1111113281249L805.5555556640626 443.4444443359374A31.166666992187505 31.166666992187505 0 0 1 805.5000000000001 487.0555556640625A31.22222265625 31.22222265625 0 0 1 761.8333330078126 487.1666669921875L527.6666669921876 253z" />
    <glyph glyph-name="xiaoK"
      unicode="&#xE610;"
      horiz-adv-x="1000" d="M488.28125 845.482421875C741.0971435546875 845.482421875 946.044921875 640.5346455078125 946.044921875 387.71875C946.044921875 134.9028564453125 741.0971435546875 -70.044921875 488.28125 -70.044921875C235.4653544921875 -70.044921875 30.517578125 134.9028564453125 30.517578125 387.71875C30.517578125 640.5346455078125 235.4653544921875 845.482421875 488.28125 845.482421875zM488.28125 784.447265625C269.174140625 784.447265625 91.552734375 606.8258593749999 91.552734375 387.71875C91.552734375 168.6116425781251 269.174140625 -9.009765625 488.28125 -9.009765625C707.388357421875 -9.009765625 885.009765625 168.6116425781251 885.009765625 387.71875C885.009765625 606.8258593749999 707.388357421875 784.447265625 488.28125 784.447265625zM732.421875 479.271484375C782.985052734375 479.271484375 823.974609375 438.281927734375 823.974609375 387.71875C823.974609375 337.155572265625 782.985052734375 296.166015625 732.421875 296.166015625L244.140625 296.166015625C193.5774462890625 296.166015625 152.587890625 337.155572265625 152.587890625 387.71875C152.587890625 438.281927734375 193.5774462890625 479.271484375 244.140625 479.271484375L732.421875 479.271484375zM259.3994140625 418.236328125C242.545021484375 418.236328125 228.8818359375 404.5731416015625 228.8818359375 387.71875C228.8818359375 370.8643583984375 242.545021484375 357.201171875 259.3994140625 357.201171875C276.253806640625 357.201171875 289.9169921875 370.8643583984375 289.9169921875 387.71875C289.9169921875 404.5731416015625 276.253806640625 418.236328125 259.3994140625 418.236328125zM564.5751953125 418.236328125C547.7208037109375 418.236328125 534.0576171875 404.5731416015625 534.0576171875 387.71875C534.0576171875 370.8643583984375 547.7208037109375 357.201171875 564.5751953125 357.201171875C581.4295869140625 357.201171875 595.0927734375 370.8643583984375 595.0927734375 387.71875C595.0927734375 404.5731416015625 581.4295869140625 418.236328125 564.5751953125 418.236328125zM411.9873046875 418.236328125C395.1329130859375 418.236328125 381.4697265625 404.5731416015625 381.4697265625 387.71875C381.4697265625 370.8643583984375 395.1329130859375 357.201171875 411.9873046875 357.201171875C428.8416962890625 357.201171875 442.5048828125 370.8643583984375 442.5048828125 387.71875C442.5048828125 404.5731416015625 428.8416962890625 418.236328125 411.9873046875 418.236328125zM717.1630859375 418.236328125C700.3086943359375 418.236328125 686.6455078125 404.5731416015625 686.6455078125 387.71875C686.6455078125 370.8643583984375 700.3086943359375 357.201171875 717.1630859375 357.201171875C734.0174775390625 357.201171875 747.6806640625 370.8643583984375 747.6806640625 387.71875C747.6806640625 404.5731416015625 734.0174775390625 418.236328125 717.1630859375 418.236328125z" />
    <glyph glyph-name="xihuan"
      unicode="&#xE618;"
      horiz-adv-x="1000" d="M93.752311875 1C76.492136875 1 62.5 20.6994687499999 62.5 45L62.5 457C62.5 481.30052875 76.492136875 501 93.752311875 501L201 501L210.775016875 503.477438125C259.5218118750001 516.882126875 318.6558862500001 543.2937281249999 342.14920625 577.8245843750001L350.41891125 592.103974375C356.231078125 602.637525 367.661010625 625.4195525 372.231373125 651.51273875C374.93973625 666.9753675 377.961738125 682.42449875 381.297378125 697.860131875L386.5360681250001 721.003458125C399.2337725 787.145044375 440.4650025 813.5 479.5989275 813.5C603.297664375 813.5 663.37705 730.625439375 657.17974375 576.4147612500001L656.41265625 565.729574375L653.9702375 536.182835625L777.3091312500001 536.14342375C836.66951875 536.14342375 871.571 523.573565625 874.76034375 483.351719375L875 477.1091675L874.785025 475.148794375L791.29335625 59.2887187499999C779.7463125 24.12369375 740.69520625 1 697.13185 1zM479.5989275 751C466.908981875 751 456.09409625 742.4497018750001 449.27895625 715.318551875L447.3565312500001 706.61175125C442.16478875 684.671046875 437.6442668750001 662.710819375 433.7941525 640.729685625C430.65096125 622.784528125 425.208480625 605.42622125 418.12301625 588.6490162499999L410.7888975 572.932431875C404.736685 560.7004493750001 398.883826875 550.03438 402.953735 558.255673125C379.292160625 510.45884 323.0711706250001 474.60936 257.011119375 452.180194375L250 449.9375L250 63.5L697.13185 63.5C713.6624499999999 63.5 726.13955 69.8625125 730.53536875 76.12728125L731.1875 77.5L810.5 471.375L807.691725 471.816661875C802.18581875 472.649195625 795.09516875 473.260483125 786.45058125 473.51409375L777.2891625 473.643426875L586.0924331250001 473.7045225L594.730154375 578.924439375C599.66238875 701.6557325 563.010381875 751 479.5989275 751zM187.5 438.5L125 438.5L125 63.5L187.5 63.5L187.5 438.5z" />
    <glyph glyph-name="xingzhuang"
      unicode="&#xE62F;"
      horiz-adv-x="1000" d="M489.18564453125 876C760.729345703125 876 976.5625 654.6952734375 976.5625 388.3970419921875C976.5625 106.5658828125 751.6628134765625 -100.5625 488.28125 -100.5625C405.30328515625 -100.5625 317.192890625 -77.7718193359375 247.0346787109375 -36.4184990234376L239.34734765625 -31.8287041015625C222.842193359375 -22.3325888671875 216.240130859375 -20.9760048828125 207.693626953125 -23.7570107421875L113.11683203125 -51.7931572265625C64.9127373046875 -64.3416015625 21.3888720703125 -22.71695703125 35.4521669921875 27.996826171875L67.03805859375 133.6298134765625C67.9299755859375 137.1094658203125 67.358033203125 140.8025810546875 65.4553720703125 143.8494423828125C23.0167763671875 221.89847265625 0 306.0747626953126 0 387.0404580078125C0 653.519564453125 214.47656640625 876 489.18564453125 876L489.18564453125 876zM489.18564453125 805.977447265625C253.7497900390625 806.0000576171875 69.9999423828125 615.3994404296875 69.9999423828125 387.0404580078125C69.9999423828125 318.23883203125 89.89656640625 245.4578896484375 126.0722470703125 178.8494140625001C138.937224609375 157.8223007812501 140.836447265625 131.9340751953125 132.9230166015625 109.663427734375L105.8364765625 19.0659531250001L192.1380849609375 44.70546875C221.8473623046875 52.9806572265626 244.5702109375 46.3785927734375 277.444861328125 27.0019951171874L283.0520908203125 23.6331337890625C341.7019140625 -10.9146416015625 417.4899619140625 -30.5173408203126 488.28125 -30.5173408203126C714.2209824218751 -30.5173408203126 906.5625556640626 146.6078408203125 906.5625556640626 388.4422646484375C906.5625556640626 616.4394912109375 721.6596123046875 806.0000576171875 489.18564453125 806.0000576171875L489.18564453125 805.977447265625zM490.13525390625 602.2631455078125C508.40396875 602.2631455078125 523.3716591796875 588.2450693359375 524.93173828125 570.3833271484375L525.067396484375 567.195345703125L524.7282509765625 419.86988671875L670.064048828125 419.5307412109375C688.785462890625 419.5047988281251 704.1715537109376 404.7510322265626 704.9826591796875 386.0471748046875C705.793763671875 367.3433173828125 691.7426552734374 351.31298828125 673.0937568359375 349.666455078125L669.905775390625 349.530796875L524.5699775390625 349.8699423828125L524.2308310546875 204.3984863281249C524.2048896484375 185.677064453125 509.4511298828125 170.29098046875 490.747265625 169.4798759765626C472.043408203125 168.6687705078125 456.0130791015625 182.7198798828125 454.366552734375 201.3687783203126L454.2308876953125 204.5567587890626L454.54742578125 350.0282158203126L307.131529296875 350.3447470703125C288.2980478515625 350.208677734375 272.733814453125 365.0005996093751 271.9120205078125 383.81663671875C271.0902255859375 402.632666015625 285.3055751953126 418.7252158203126 304.0792050781251 420.231640625L307.2671875 420.367298828125L454.6830849609375 420.0281533203126L455.0448447265625 567.3536142578125C455.062806640625 576.640115234375 458.7706474609375 585.5387919921875 465.352037109375 592.0904931640625C471.9334189453125 598.6421943359376 480.848765625 602.3097695312499 490.13525390625 602.2858730468749L490.13525390625 602.2631455078125z" />
    <glyph glyph-name="xingzhuangjiehe"
      unicode="&#xE62E;"
      horiz-adv-x="1000" d="M830.078125 876C910.986328125 876 976.5625 809.8663876953125 976.5625 728.270412109375L976.5625 235.8876953125C976.5625 154.2917197265625 910.986328125 88.1581123046875 830.078125 88.1581123046875L400.48828125 88.1581123046875C378.41796875 88.0596259765624 356.982421875 80.5746582031251 339.697265625 66.6880791015625L200.29296875 -45.09398046875L158.7890625 -78.6778388671875C94.873046875 -130.432435546875 0 -84.5870185546876 0 -1.9076943359375L0 728.270412109375C0 809.8663876953125 65.576171875 876 146.484375 876zM830.029296875 802.1352060546875L146.38671875 802.1352060546875C105.95703125 802.1352060546875 73.14453125 769.0437783203125 73.14453125 728.270412109375L73.14453125 -1.9569404296875C73.14453125 -22.6390830078125 96.875 -34.1127441406251 112.890625 -21.1617880859375L154.39453125 12.4220771484374L294.04296875 124.548828125C324.267578125 148.7764853515626 361.767578125 162.022900390625 400.439453125 162.022900390625L830.029296875 162.022900390625C870.458984375 162.022900390625 903.271484375 195.1143271484375 903.271484375 235.8876953125L903.271484375 728.270412109375C903.271484375 769.0437783203125 870.458984375 802.1352060546875 830.029296875 802.1352060546875zM492.08984375 691.338015625C512.3046875 691.338015625 528.7109375 674.7923017578125 528.7109375 654.405619140625L528.7109375 423.455029296875L608.154296875 343.3363486328125C622.460302734375 328.9087333984376 622.460302734375 305.5169365234375 608.154296875 291.0893203125001C593.848291015625 276.6616982421874 570.653662109375 276.6616982421874 556.34765625 291.0893203125001L466.162109375 382.04150390625C462.7522109375 385.48043359375 460.0476982421875 389.563330078125 458.203125 394.0568427734375C456.396484375 398.43948828125 455.46875 403.16683203125 455.46875 408.1896416015626L455.46875 654.405619140625C455.46875 674.7923017578125 471.875 691.338015625 492.08984375 691.338015625z" />
    <glyph glyph-name="xuanzezhinengti"
      unicode="&#xE62D;"
      horiz-adv-x="1000" d="M813.8020859375 876C903.6921806640626 876 976.5625 813.5397255859375 976.5625 736.4910712890625L976.5625 38.9464287109374C976.5625 -38.1022255859375 903.6921806640626 -100.5625 813.8020859375 -100.5625L162.760416015625 -100.5625C72.8703212890625 -100.5625 0 -38.1022255859375 0 38.9464287109374L0 736.4910712890625C0 813.5397255859375 72.8703212890625 876 162.760416015625 876L813.8020859375 876zM823.1026787109374 806.2455361328125L153.4598212890625 806.2455361328125C109.3319560546875 806.2455361328125 73.1794736328125 777.7899765625 69.984056640625 741.6969287109375L69.7544638671875 736.4910712890625L69.7544638671875 38.9464287109374C69.7544638671875 2.1732070312501 103.901134765625 -27.9538642578126 147.2127919921875 -30.6167060546875L153.4598212890625 -30.8080361328125L823.1026787109374 -30.8080361328125C867.2305458984375 -30.8080361328125 903.3830283203126 -2.3524765625 906.5784462890626 33.7405693359375L906.8080361328126 38.9464287109374L906.8080361328126 736.4910712890625C906.8080361328126 773.2642929687499 872.66136328125 803.391361328125 829.34970703125 806.0542080078125L823.1026787109374 806.2455361328125zM285.6611396484375 228.279974609375C307.6750400390625 228.279974609375 325.520833984375 210.434181640625 325.520833984375 188.4202802734375C325.520833984375 166.4063828125 307.6750400390625 148.5605888671875 285.6611396484375 148.5605888671875L202.6201103515625 148.5605888671875C180.6062099609375 148.5605888671875 162.760416015625 166.4063828125 162.760416015625 188.4202802734375C162.760416015625 210.434181640625 180.6062099609375 228.279974609375 202.6201103515625 228.279974609375L285.6611396484375 228.279974609375zM773.9423896484375 228.279974609375C795.9562919921875 228.279974609375 813.8020859375 210.434181640625 813.8020859375 188.4202802734375C813.8020859375 166.4063828125 795.9562919921875 148.5605888671875 773.9423896484375 148.5605888671875L446.7607353515625 148.5605888671875C424.7468349609375 148.5605888671875 406.9010410156251 166.4063828125 406.9010410156251 188.4202802734375C406.9010410156251 210.434181640625 424.7468349609375 228.279974609375 446.7607353515625 228.279974609375L773.9423896484375 228.279974609375zM285.6611396484375 427.578443359375C307.6750400390625 427.578443359375 325.520833984375 409.7326513671875 325.520833984375 387.71875C325.520833984375 365.7048486328125 307.6750400390625 347.859056640625 285.6611396484375 347.859056640625L202.6201103515625 347.859056640625C180.6062099609375 347.859056640625 162.760416015625 365.7048486328125 162.760416015625 387.71875C162.760416015625 409.7326513671875 180.6062099609375 427.578443359375 202.6201103515625 427.578443359375L285.6611396484375 427.578443359375zM773.9423896484375 427.578443359375C795.9562919921875 427.578443359375 813.8020859375 409.7326513671875 813.8020859375 387.71875C813.8020859375 365.7048486328125 795.9562919921875 347.859056640625 773.9423896484375 347.859056640625L446.7607353515625 347.859056640625C424.7468349609375 347.859056640625 406.9010410156251 365.7048486328125 406.9010410156251 387.71875C406.9010410156251 409.7326513671875 424.7468349609375 427.578443359375 446.7607353515625 427.578443359375L773.9423896484375 427.578443359375zM285.6611396484375 626.8769130859375C307.6750400390625 626.8769130859375 325.520833984375 609.0311201171876 325.520833984375 587.0172197265625C325.520833984375 565.003318359375 307.6750400390625 547.157525390625 285.6611396484375 547.157525390625L202.6201103515625 547.157525390625C180.6062099609375 547.157525390625 162.760416015625 565.003318359375 162.760416015625 587.0172197265625C162.760416015625 609.0311201171876 180.6062099609375 626.8769130859375 202.6201103515625 626.8769130859375L285.6611396484375 626.8769130859375zM773.9423896484375 626.8769130859375C795.9562919921875 626.8769130859375 813.8020859375 609.0311201171876 813.8020859375 587.0172197265625C813.8020859375 565.003318359375 795.9562919921875 547.157525390625 773.9423896484375 547.157525390625L446.7607353515625 547.157525390625C424.7468349609375 547.157525390625 406.9010410156251 565.003318359375 406.9010410156251 587.0172197265625C406.9010410156251 609.0311201171876 424.7468349609375 626.8769130859375 446.7607353515625 626.8769130859375L773.9423896484375 626.8769130859375z" />
    <glyph glyph-name="yanse"
      unicode="&#xE608;"
      horiz-adv-x="1000" d="M705.3157507142857 120.1766214285715C630.6485235714287 56.9698857142856 534.0608307142857 18.8571428571429 428.5714285714286 18.8571428571429C191.8779642857143 18.8571428571429 0 210.735107142857 0 447.4285714285715C0 684.1220357142857 191.8779642857143 876 428.5714285714286 876C665.264892857143 876 857.1428571428571 684.1220357142857 857.1428571428571 447.4285714285715C857.1428571428571 341.9391692857144 819.0301142857144 245.3514764285714 755.8233785714285 170.6842492857143L989.5395357142858 -63.0318928571429C1003.4868285714286 -76.9791857142858 1003.4868285714286 -99.5922428571429 989.5395357142858 -113.5395357142857C975.5922428571428 -127.4868285714285 952.9791857142858 -127.4868285714285 939.031892857143 -113.5395357142857L705.3157507142857 120.1766214285715L705.3157507142857 120.1766214285715zM428.5714285714286 90.2857142857142C625.8159821428573 90.2857142857142 785.7142857142858 250.1840178571428 785.7142857142858 447.4285714285715C785.7142857142858 644.673125 625.8159821428573 804.5714285714286 428.5714285714286 804.5714285714286C231.326875 804.5714285714286 71.4285714285714 644.673125 71.4285714285714 447.4285714285715C71.4285714285714 250.1840178571428 231.326875 90.2857142857142 428.5714285714286 90.2857142857142z" />
    <glyph glyph-name="yiquxiao"
      unicode="&#xE629;"
      horiz-adv-x="1000" d="M500 876C776.1423714285714 876 1000 652.142375 1000 376C1000 99.8576285714286 776.1423714285714 -124 500 -124C223.857625 -124 0 99.8576285714286 0 376C0 652.142375 223.857625 876 500 876zM701.524385 578.5366321428571C683.1992271428571 596.8617907142857 667.4094335714286 593.9170607142858 651.1314542857143 577.6390814285714L499.9787014285715 426.49672L348.8685457142858 577.6390814285714L345.6185628571429 580.7145492857144C330.4739921428572 594.2151585714286 315.5790957142857 595.6401135714286 298.475615 578.5366321428571L295.069225 574.9134835714285C280.3443935714286 558.161827857143 281.9839571428572 543.508415 298.3609185714286 527.1314542857142L449.4787014285714 375.99672L298.3609185714286 224.8685457142857C282.4338742857143 208.9415014285714 279.69669 192.2422921428571 297.9520385714286 173.9869435714286C316.2073871428572 155.7315928571429 332.6715514285715 158.1639214285714 348.8685457142858 174.3609185714286L499.9787014285715 325.5324342857143L651.1314542857143 174.3609185714286L654.3748671428572 171.3070992857144C669.5316314285714 157.9315571428571 685.0096364285714 156.9486214285713 702.0479614285715 173.9869435714286L705.4214428571429 177.6174971428571C719.8797285714286 194.4654214285714 716.5043214285715 210.0033042857142 701.6390814285714 224.8685457142857L550.4787014285714 375.99672L701.6390814285714 527.1314542857142C719.1858285714285 544.6781985714285 719.8146357142857 560.2463792857143 701.524385 578.5366321428571z" />
    <glyph glyph-name="yiwancheng"
      unicode="&#xE628;"
      horiz-adv-x="1000" d="M500 813.5C741.624575 813.5 937.5 617.624578125 937.5 376C937.5 134.375425 741.624575 -61.5 500 -61.5C258.3754218750001 -61.5 62.5 134.375425 62.5 376C62.5 617.624578125 258.3754218750001 813.5 500 813.5zM706.5203437499999 555.180820625C691.958325 567.7225787499999 670.1647631249999 565.874014375 657.8430562499999 551.0519368749999L431.105581875 278.3357606250001L342.324075625 386.78734L339.92630625 389.432525C327.417623125 401.89878 307.41701875 402.9417175000001 293.6786618750001 391.2886275C279.024415 378.858665 277.044479375 356.6904193750001 289.256351875 341.7744643749999L404.38751 201.149744375L406.780739375 198.506959375C420.903918125 184.40690625 444.1937625 185.1956624999999 457.28823625 200.947320625L710.5767875 505.63421375L712.72176875 508.495460625C722.6216875 523.1914775 720.1722375 543.4229225 706.5203437499999 555.180820625z" />
    <glyph glyph-name="zhishi"
      unicode="&#xE621;"
      horiz-adv-x="1000" d="M288.8997392578125 753.9296875C374.70107421875 753.9296875 449.4262265625 706.50690234375 488.2942412109375 636.442283203125C527.1362734375 706.50690234375 601.86142578125 753.9296875 687.662759765625 753.9296875L854.4921875 753.9296875C888.2009736328125 753.9296875 915.52734375 726.6033173828125 915.52734375 692.89453125L915.52734375 152.7555205078124C915.52734375 119.046734375 888.2009736328125 91.7203642578124 854.4921875 91.7203642578124L581.2546962890625 91.7203642578124C549.127978515625 91.7203642578124 522.39326171875 68.634466796875 516.734841796875 38.1469697265625L516.764322265625 -11.6110107421875C516.764322265625 -27.028775390625 504.2657558593751 -39.52734375 488.8479921875 -39.52734375L487.7145078125 -39.52734375C473.398013671875 -39.52734375 461.5985810546875 -28.7505185546875 459.9859892578125 -14.86664453125L459.798177734375 -11.6110107421875L459.827658203125 38.1469697265625C454.16923828125 68.634466796875 427.434521484375 91.7203642578124 395.3078037109375 91.7203642578124L122.0703125 91.7203642578124C88.3615263671875 91.7203642578124 61.03515625 119.046734375 61.03515625 152.7555205078124L61.03515625 692.89453125C61.03515625 726.6033173828125 88.3615263671875 753.9296875 122.0703125 753.9296875L288.8997392578125 753.9296875zM288.8997392578125 692.89453125L122.0703125 692.89453125L122.0703125 152.7555205078124L395.3078037109375 152.7555205078124C416.5974941406251 152.7555205078124 436.6603642578125 147.5028720703125 454.271158203125 138.22282421875L455.6884765625 137.41357421875L455.729166015625 526.065103515625C455.729166015625 614.7899580078125 386.467376953125 687.3378544921875 299.0625234375001 692.5900654296875L288.8997392578125 692.89453125zM854.4921875 692.89453125L687.662759765625 692.89453125L677.4999755859376 692.5900654296875C590.095123046875 687.3378544921875 520.833333984375 614.7899580078125 520.833333984375 526.065103515625L520.8740234375 137.41357421875L522.291341796875 138.22282421875C539.9021357421875 147.5028720703125 559.9650058593751 152.7555205078124 581.2546962890625 152.7555205078124L854.4921875 152.7555205078124L854.4921875 692.89453125z" />
    <glyph glyph-name="zhongmingming"
      unicode="&#xE605;"
      horiz-adv-x="923.0769230769231" d="M654.9050446153846 274.5643038461539L913.666 15.2361461538462C926.2138999999999 2.6606923076923 926.2138999999999 -17.7566076923077 913.666 -30.336623076923L829.6873384615384 -114.5635615384615C823.412823076923 -120.8518615384614 815.1810076923076 -124 806.9537384615385 -124C798.7219153846153 -124 790.4935076923076 -120.8518615384614 784.2133076923076 -114.5635615384615L525.4603099999999 144.7634500000002C518.4840761538461 151.7173923076923 515.1358469230769 161.4308007692308 516.2538184615385 171.1829607692308L524.7642776923077 247.0938923076924C526.5077669230769 262.0526776923078 538.2925299999999 273.8291292307693 553.2173946153846 275.4704469230769L628.6844592307691 283.7898746153847C638.8622084615384 284.7336330769231 648.0755238461538 281.4156630769231 654.9050446153846 274.5643038461539zM726.60763 876C794.5377692307692 876 849.9177384615384 820.573622 849.9177384615384 752.4885838461539L849.9177384615384 260.370326923077C849.9177384615384 242.5836892307692 835.4819153846154 228.1469346153846 817.6944538461538 228.1469346153846C799.9786384615385 228.1469346153846 785.6099153846153 242.5836884615385 785.6099153846153 260.370326923077L785.6099153846153 752.4885838461539C785.6099153846153 785.0618969230769 759.1095538461537 811.5566346923077 726.6076284615385 811.5566346923077L123.1713576923077 811.5566346923077C90.6694315384615 811.5566346923077 64.3089575384615 785.0618953846154 64.3089575384615 752.4885838461539L64.3089575384615 36.6644615384615C64.3089575384615 4.0922846153846 90.6694315384615 -22.3648384615384 123.1713576923077 -22.3648384615384L553.3561461538461 -22.3648384615384C571.0742330769231 -22.3648384615384 585.4429553846153 -36.8038692307692 585.4429553846153 -54.5916461538461C585.4429553846153 -72.3794307692307 571.0742346153845 -86.8161846153845 553.3561461538461 -86.8161846153845L123.1713576923077 -86.8161846153845C55.2412186153846 -86.8161846153845 0 -31.4217153846153 0 36.6644615384615L0 752.4885838461539C0 820.573622 55.2423566923077 876 123.1713592307692 876L726.60763 876zM620.3821276923077 218.084746923077L585.7886961538461 214.2424684615386L581.81495 179.363333076923L806.9537384615385 -46.2380307692308L845.5209153846154 -7.5496692307692L620.3821276923077 218.084746923077zM396.8480807692308 269.0738684615385C414.5650307692308 269.0738684615385 429.0019907692308 254.6428130769231 429.0019907692308 236.8538953846154C429.0019907692308 219.0592792307692 414.5650315384615 204.6282230769232 396.8480815384616 204.6282230769232L246.3438530769231 204.6282230769232C228.6269030769231 204.6282230769232 214.2581815384616 219.0592792307692 214.2581815384616 236.8538953846154C214.2581815384616 254.6416730769231 228.6269038461538 269.0738684615385 246.3438530769231 269.0738684615385L396.8480807692308 269.0738684615385zM603.4374084615384 447.523826923077C621.2237346153845 447.523826923077 635.6606946153846 433.0927707692308 635.6606946153846 415.2992946153847C635.6606946153846 397.5115161538462 621.2225969230768 383.0804615384615 603.4374084615384 383.0804615384615L246.3438530769231 383.0804615384615C228.6269030769231 383.0804615384615 214.2581815384616 397.5126569230769 214.2581815384616 415.2992946153847C214.2581815384616 433.0927707692308 228.6269038461538 447.523826923077 246.3438530769231 447.523826923077L603.4374084615384 447.523826923077zM603.4374084615384 625.9430092307692C621.2237346153845 625.9430092307692 635.6606946153846 611.5051146153846 635.6606946153846 593.7184769230769C635.6606946153846 575.9307 621.2225969230768 561.4928053846154 603.4374084615384 561.4928053846154L246.3438530769231 561.4928053846154C228.6269030769231 561.4928053846154 214.2581815384616 575.9307 214.2581815384616 593.7184769230769C214.2581815384616 611.5051146153846 228.6269038461538 625.9430092307692 246.3438530769231 625.9430092307692L603.4374084615384 625.9430092307692z" />
    <glyph glyph-name="zhuangtaitubiao-tishi"
      unicode="&#xE60B;"
      horiz-adv-x="1000" d="M488.28125 814.96484375C724.2427519531251 814.96484375 915.52734375 623.680251953125 915.52734375 387.71875C915.52734375 151.7572480468749 724.2427519531251 -39.52734375 488.28125 -39.52734375C252.319748046875 -39.52734375 61.03515625 151.7572480468749 61.03515625 387.71875C61.03515625 623.680251953125 252.319748046875 814.96484375 488.28125 814.96484375zM511.0650234375 477.1303349609375L509.3190341796875 476.90153515625L402.5075107421875 450.198654296875C399.111154296875 449.34956640625 396.728515625 446.2979365234375 396.728515625 442.7970546875L396.728515625 442.7970546875L396.728515625 425.86572265625C396.728515625 421.6521240234375 400.1443115234375 418.236328125 404.35791015625 418.236328125L404.35791015625 418.236328125L457.763671875 418.236328125L457.763671875 219.8720703125L387.6028750000001 205.8399111328125C384.0367099609375 205.1266787109374 381.4697265625 201.9954619140625 381.4697265625 198.3586728515625L381.4697265625 198.3586728515625L381.4697265625 181.72509765625C381.4697265625 177.5114990234375 384.8855224609375 174.095703125 389.09912109375 174.095703125L389.09912109375 174.095703125L587.46337890625 174.095703125C591.6769775390625 174.095703125 595.0927734375 177.5114990234375 595.0927734375 181.72509765625L595.0927734375 181.72509765625L595.0927734375 198.3586728515625C595.0927734375 201.9954619140625 592.5257900390625 205.1266787109374 588.959625 205.8399111328125L588.959625 205.8399111328125L518.798828125 219.8720703125L518.798828125 469.499935546875C518.798828125 470.12373046875 518.7223271484374 470.7451689453125 518.571033203125 471.3503359374999C517.5490849609375 475.4381259765625 513.40682421875 477.9234833984375 509.3190341796875 476.90153515625zM488.28125 631.859375C462.9996611328125 631.859375 442.5048828125 611.3645966796876 442.5048828125 586.0830078125C442.5048828125 560.8014189453124 462.9996611328125 540.306640625 488.28125 540.306640625C513.5628388671875 540.306640625 534.0576171875 560.8014189453124 534.0576171875 586.0830078125C534.0576171875 611.3645966796876 513.5628388671875 631.859375 488.28125 631.859375z" />
    <glyph glyph-name="zidingyi"
      unicode="&#xE602;"
      horiz-adv-x="1000" d="M156.25 32.3625C156.25 32.475 343.73125 32.41875 718.6375 32.25C718.525 32.25 718.58125 219.7312500000001 718.75 594.6374996874999C718.75 594.5249996875 531.26875 594.5812496875 156.362499375 594.75C156.474999375 594.75 156.418749375 407.26875 156.25 32.3625zM93.75 599.843750625C93.75 631.46875 119.8749996875 657.25 151.156249375 657.25L723.84375 657.25C755.46875 657.25 781.25 631.1250003125 781.25 599.843750625L781.25 27.15625C781.25 -4.46875 755.125 -30.25 723.84375 -30.25L151.156249375 -30.25C119.5167928125 -30.0932875 93.906711875 -4.48320625 93.75 27.15625L93.75 599.843750625zM281.374999375 782.25L843.625 782.25C878.125 782.25 906.25 753.7500003125 906.25 719.625000625L906.25 157.375C906.25 123.375 878.6875 95.625 845.1875 94.75L845.1875 720.375L218.75 720.375C219.1249996875 754.5624996875 247.4999990625 782.25 281.374999375 782.25z" />
    <glyph glyph-name="ziyoubilv"
      unicode="&#xE615;"
      horiz-adv-x="1000" d="M183.10546875 296.166015625L183.10546875 82.54296875L396.728515625 82.54296875L396.728515625 21.5078125L152.587890625 21.5078125C135.733498046875 21.5078125 122.0703125 35.1709990234375 122.0703125 52.025390625L122.0703125 296.166015625L183.10546875 296.166015625zM854.4921875 296.166015625L854.4921875 52.025390625C854.4921875 35.1709990234375 840.8290009765625 21.5078125 823.974609375 21.5078125L579.833984375 21.5078125L579.833984375 82.54296875L793.45703125 82.54296875L793.45703125 296.166015625L854.4921875 296.166015625zM823.974609375 753.9296875C840.8290009765625 753.9296875 854.4921875 740.266501953125 854.4921875 723.412109375L854.4921875 479.271484375L793.45703125 479.271484375L793.45703125 692.89453125L579.833984375 692.89453125L579.833984375 753.9296875L823.974609375 753.9296875zM396.728515625 692.89453125L183.10546875 692.89453125L183.10546875 479.271484375L122.0703125 479.271484375L122.0703125 723.412109375C122.0703125 740.266501953125 135.733498046875 753.9296875 152.587890625 753.9296875L396.728515625 753.9296875L396.728515625 692.89453125z" />
  </font>
</defs>
</svg>
