<?xml version="1.0" standalone="no"?>
<!DOCTYPE svg PUBLIC "-//W3C//DTD SVG 1.1//EN" "http://www.w3.org/Graphics/SVG/1.1/DTD/svg11.dtd" >
<svg xmlns="http://www.w3.org/2000/svg">
<defs>
  <font id="iconcool" horiz-adv-x="1000">
    <font-face font-family="iconcool"
      units-per-em="1000" ascent="876"
      descent="124" />
    <missing-glyph horiz-adv-x="0" />
    <glyph glyph-name="Itemgongshishitu"
      unicode="&#xE6A3;"
      horiz-adv-x="1000" d="M800 801C841.421355 801 875 767.42135625 875 726L875 26C875 -15.4213549999999 841.421355 -49 800 -49L200 -49C158.57864375 -49 125 -15.4213549999999 125 26L125 726C125 767.42135625 158.57864375 801 200 801L800 801zM800 726L200 726L200 26L800 26L800 726zM712.5 351C733.2106775 351 750 334.2106775 750 313.5C750 292.7893225000001 733.2106775 276 712.5 276L650 276L650 113.5C650 92.7893225 633.2106775 76 612.5 76C591.7893225 76 575 92.7893225 575 113.5L575 276L512.5 276C491.7893225 276 475 292.7893225000001 475 313.5C475 334.2106775 491.7893225 351 512.5 351L712.5 351zM437.5 451C458.2106775 451 475 434.2106775 475 413.5C475 392.7893225000001 458.2106775 376 437.5 376L287.5 376C266.7893225 376 250 392.7893225000001 250 413.5C250 434.2106775 266.7893225 451 287.5 451L437.5 451zM712.5 626C733.2106775 626 750 609.2106775 750 588.5C750 567.7893225 733.2106775 551 712.5 551L287.5 551C266.7893225 551 250 567.7893225 250 588.5C250 609.2106775 266.7893225 626 287.5 626L712.5 626z" />
    <glyph glyph-name="baifenbi"
      unicode="&#xE65F;"
      horiz-adv-x="1000" d="M702.8551525 308.56998C797.6300625 308.56998 874.4603075 231.6189225 874.4603075 136.69498C874.4603075 41.7710399999999 797.6300625 -35.1800199999999 702.8551525 -35.1800199999999C608.080245 -35.1800199999999 531.25 41.7710399999999 531.25 136.69498C531.25 231.6189225 608.080245 308.56998 702.8551525 308.56998zM805.8936299999999 755.230861C822.965235 742.35058225 826.3714 718.1461525 813.5535775 701.102421L273.9530325 -16.3991300000001C261.1609125 -33.408685 237.00188475 -36.8275925 219.992331 -24.0354749999999C202.92072575 -11.155195 199.51456125 13.049235 212.33238275 30.0929650000001L751.9329299999999 747.594518C764.7250475 764.604072 788.8840749999999 768.022979 805.8936299999999 755.230861zM703.125 235.375C651.348305 235.375 609.375 193.3356925000001 609.375 141.47758C609.375 89.619465 651.348305 47.5801575 703.125 47.5801575C754.901695 47.5801575 796.875 89.619465 796.875 141.47758C796.875 193.3356925000001 754.901695 235.375 703.125 235.375zM296.6051525000001 746.069981C391.3800625 746.069981 468.2103074999999 669.11892225 468.2103074999999 574.19498C468.2103074999999 479.27104 391.3800625 402.31998 296.6051525000001 402.31998C201.830244 402.31998 125 479.27104 125 574.19498C125 669.11892225 201.830244 746.069981 296.6051525000001 746.069981zM296.875 672.875C245.09830475 672.875 203.125 630.83569275 203.125 578.97758C203.125 527.119465 245.09830475 485.0801575 296.875 485.0801575C348.651695 485.0801575 390.625 527.119465 390.625 578.97758C390.625 630.83569275 348.651695 672.875 296.875 672.875z" />
    <glyph glyph-name="baobiaojiancha"
      unicode="&#xE660;"
      horiz-adv-x="1000" d="M775 776C816.421355 776 850 742.42135625 850 701L850 476L775 476L775 701L175 701L175 51L425 51L425 -24L175 -24C133.57864375 -24 100 9.5786450000001 100 51L100 701C100 742.42135625 133.57864375 776 175 776L775 776zM662.5 451C793.6676275 451 900 344.6676275 900 213.5C900 82.3323725 793.6676275 -24 662.5 -24C531.3323725 -24 425 82.3323725 425 213.5C425 344.6676275 531.3323725 451 662.5 451zM662.5 376C572.7537275000001 376 500 303.2462724999999 500 213.5C500 123.7537275000001 572.7537275000001 51 662.5 51C752.2462724999999 51 825 123.7537275000001 825 213.5C825 303.2462724999999 752.2462724999999 376 662.5 376zM774.913645 291.52785C790.3929975 277.768425 791.787275 254.06571 778.02785 238.5863550000001L678.02785 126.086355C662.7911574999999 108.9450775 635.8738575 109.3745 621.1917025 126.993085L558.6917025 201.993085C545.43305 217.9034675 547.5827025 241.5496450000001 563.493085 254.8082975C579.4034675 268.06695 603.049645 265.9172975 616.3082975 250.0069150000001L650.9000000000001 208.5L721.97215 288.413645C735.731575 303.8929975 759.43429 305.287275 774.913645 291.52785zM387.5 451C408.2106775 451 425 434.2106775 425 413.5C425 392.7893225000001 408.2106775 376 387.5 376L287.5 376C266.7893225 376 250 392.7893225000001 250 413.5C250 434.2106775 266.7893225 451 287.5 451L387.5 451zM637.5 626C658.2106775 626 675 609.2106775 675 588.5C675 567.7893225 658.2106775 551 637.5 551L287.5 551C266.7893225 551 250 567.7893225 250 588.5C250 609.2106775 266.7893225 626 287.5 626L637.5 626z" />
    <glyph glyph-name="baoqiandiaozheng"
      unicode="&#xE661;"
      horiz-adv-x="1000" d="M825 776C866.421355 776 900 742.42135625 900 701L900 51C900 9.5786450000001 866.421355 -24 825 -24L175 -24C133.57864375 -24 100 9.5786450000001 100 51L100 701C100 742.42135625 133.57864375 776 175 776L825 776zM825 701L175 701L175 51L825 51L825 701zM637.5 638.5C658.2106775 638.5 675 621.7106775 675 601L675.01151 570.273855C725.7194025 554.3420075 762.5 506.9662875 762.5 451C762.5 395.0337125000001 725.7194025 347.6579925 675.01151 331.7261450000001L675 151C675 130.2893225 658.2106775 113.5 637.5 113.5C616.7893225 113.5 600 130.2893225 600 151L599.9632975 331.7340625000001C549.268415 347.673685 512.5 395.0429800000001 512.5 451C512.5 506.95702 549.268415 554.326315 599.9632975 570.2659375000001L600 601C600 621.7106775 616.7893225 638.5 637.5 638.5zM362.5 638.5C383.2106775000001 638.5 400 621.7106775 400 601L400.0115100000001 420.273855C450.7194025000001 404.3420075 487.5 356.9662875 487.5 301C487.5 245.0337125 450.7194025000001 197.6579925 400.0115100000001 181.7261450000001L400 151C400 130.2893225 383.2106775000001 113.5 362.5 113.5C341.7893225 113.5 325 130.2893225 325 151L324.9632975 181.7340625000001C274.268415 197.673685 237.5 245.0429800000001 237.5 301C237.5 356.95702 274.268415 404.326315 324.9632975 420.2659375L325 601C325 621.7106775 341.7893225 638.5 362.5 638.5zM362.5 351C334.8857625 351 312.5 328.6142375000001 312.5 301C312.5 273.3857625 334.8857625 251 362.5 251C390.1142375 251 412.5 273.3857625 412.5 301C412.5 328.6142375000001 390.1142375 351 362.5 351zM637.5 501C609.8857624999999 501 587.5 478.6142375 587.5 451C587.5 423.3857625 609.8857624999999 401 637.5 401C665.1142375000001 401 687.5 423.3857625 687.5 451C687.5 478.6142375 665.1142375000001 501 637.5 501z" />
    <glyph glyph-name="bianjipizhu"
      unicode="&#xE6B5;"
      horiz-adv-x="1000" d="M550 726L550 651L150 651L150 101L743.9339825000001 101L850 207.0660174999999L850 376L925 376L925 207.0660174999999C925 187.17478 917.0982375 168.0982375 903.0330075 154.0330075000001L796.9669925 47.9669924999999C782.9017625 33.9017625 763.8252200000001 26 743.9339825000001 26L150 26C108.57864375 26 75 59.5786450000001 75 101L75 651C75 692.42135625 108.57864375 726 150 726L550 726zM750 326L750 251L250 251L250 326L750 326zM880.43786 764.64853875L951.1485375 693.9378604999999C970.6747525 674.411646 970.6747525 642.753397 951.1485375 623.2271825L725.7582525 397.8368950000001C717.05337 389.1320125000001 706.3395575000001 382.7037275 694.562365 379.1193625L554.0508875 336.355C540.8419775 332.3348975 526.875105 339.7838975 522.855 352.9928075000001C521.4107975000001 357.73805 521.4107975000001 362.8056475000001 522.855 367.5508875000001L565.6193625000001 508.062365C569.2037275 519.8395575 575.6320125 530.55337 584.336895 539.2582525L809.7271825 764.64853875C829.2533975 784.17475325 860.911645 784.17475325 880.43786 764.64853875zM845.0825225000001 693.9378604999999L637.369905 486.2252425L621.9019425 435.4019425L672.7252424999999 450.869905L880.43786 658.5825215L845.0825225000001 693.9378604999999zM450 526L450 451L250 451L250 526L450 526z" />
    <glyph glyph-name="bianjipizhu2"
      unicode="&#xE6BD;"
      horiz-adv-x="1000" d="M500 751L500 676L175 676L175 201L300 201L300 93.05L421.48505 201L825 201L825 351L900 351L900 201C900 159.578645 866.421355 126 825 126L450 126L225 -74L225 126L175 126C133.57864375 126 100 159.578645 100 201L100 676C100 717.42135625 133.57864375 751 175 751L500 751zM833.6660125 761.355339L904.37669 690.644661C923.902905 671.11844625 923.902905 639.4601975 904.37669 619.9339825L678.986405 394.5436975C670.2815225 385.838815 659.5677099999999 379.4105275 647.7905175 375.826165L507.27904 333.0618025C494.0701299999999 329.0416975 480.103255 336.4906975 476.0831525 349.6996075000001C474.63895 354.44485 474.63895 359.5124475 476.0831525 364.2576900000001L518.847515 504.769165C522.4318775 516.54636 528.860165 527.26017 537.5650475 535.9650525L762.955335 761.355339C782.48155 780.88155375 814.1397975 780.88155375 833.6660125 761.355339zM798.3106725 690.644661L590.5980575 482.932045L575.130095 432.108745L625.953395 447.576705L833.6660125 655.289322L798.3106725 690.644661z" />
    <glyph glyph-name="biankuangyangshi"
      unicode="&#xE6B4;"
      horiz-adv-x="1000" d="M100 751H900V676H100V751zM100 526H300V451H100V526zM100 301H215V226H100V301zM375 526H600V451H375V526zM270 301H385V226H270V301zM100 76H150V1H100V76zM670 76H720V1H670V76zM440.0000000000001 301H555.0000000000001V226H440.0000000000001V301zM210 76H325V1H210V76zM675 526H900V451H675V526zM610 301H725V226H610V301zM385 76H435V1H385V76zM780 301H894.9999999999999V226H779.9999999999999V301zM495 76H610V1H494.9999999999999V76zM780 76H894.9999999999999V1H779.9999999999999V76z" />
    <glyph glyph-name="biankuangyanse"
      unicode="&#xE6B3;"
      horiz-adv-x="1000" d="M682.5825284982865 815.5368827179855C702.1087430918326 835.0630973115314 733.7669920233956 835.0630973115314 753.2932066169412 815.5368827179855L877.0368933245873 691.7931960103397C896.5631079181331 672.2669814167938 896.5631079181331 640.6087324852308 877.0368933245873 621.0825178916848L429.6455927219414 173.6912172890391C421.7237366826025 165.7693612497004 411.3709074568443 160.7375211589725 400.2475146266956 159.4027135668064L228.0381519606136 138.7375912489581C214.3293838750723 137.0925386120026 201.8826537854084 146.8721121276124 200.2376002645694 160.5808818041439C200.000161939175 162.5595373441916 200.0001621159517 164.5594865210712 200.2376018555597 166.538141354012L220.902724173408 338.7475040200939C222.2375317655742 349.8708968502426 227.2693718563021 360.223726076001 235.1912278956408 368.1455821153397L682.5825284982865 815.5368827179855zM717.937867557614 744.8262045993307L294.327872618283 321.2162096599999L282.2717023526058 220.7716917460041L382.7338979361312 232.845539681211L806.3262152059324 656.4378569510122L717.937867557614 744.8262045993307z" />
    <glyph glyph-name="bibiejingdu"
      unicode="&#xE662;"
      horiz-adv-x="1000" d="M150 -49C108.57864375 -49 75 -15.4213549999999 75 26L75 726C75 767.42135625 108.57864375 801 150 801L375 801C416.4213550000001 801 450 767.42135625 450 726L450 326L850 326C891.421355 326 925 292.4213550000001 925 251L925 26C925 -15.4213549999999 891.421355 -49 850 -49L150 -49zM375 726L150 726L150 626L187.5 626C208.210678 626 225 609.2106775 225 588.5C225 567.7893225 208.210678 551 187.5 551L150 551L150 426L237.5 426C258.2106775000001 426 275 409.2106775 275 388.5C275 367.7893225000001 258.2106775000001 351 237.5 351L150 351L150 226L187.5 226C208.210678 226 225 209.2106775 225 188.5C225 167.7893225 208.210678 151 187.5 151L150 151L150 26L275 26L275 63.5C275 84.2106775 291.7893225 101 312.5 101C333.2106775000001 101 350 84.2106775 350 63.5L350 26L475 26L475 113.5C475 134.2106775 491.7893225 151 512.5 151C533.2106775 151 550 134.2106775 550 113.5L550 26L675 26L675 63.5C675 84.2106775 691.7893225 101 712.5 101C733.2106775 101 750 84.2106775 750 63.5L750 26L850 26L850 251L375 251L375 726z" />
    <glyph glyph-name="charupizhu"
      unicode="&#xE6B9;"
      horiz-adv-x="1000" d="M850 726C891.421355 726 925 692.42135625 925 651L925 211.2773649999999C925 191.8048925000001 917.4265775 173.095775 903.8812775 159.1064175L797.1044 48.8290525C782.9760375000001 34.2375175 763.5337925 26 743.22312 26L150 26C108.57864375 26 75 59.5786450000001 75 101L75 351L149.975 351L150 101L743.22312 101L850 211.2773649999999L850 651L475 651L475 726L850 726zM750 326L750 251L250 251L250 326L750 326zM275 476C295.7106775000001 476 312.5 459.2106775 312.5 438.5C312.5 417.7893225000001 295.7106775000001 401 275 401C254.2893225 401 237.5 417.7893225000001 237.5 438.5C237.5 459.2106775 254.2893225 476 275 476zM164.01650425 740.01650425L270.0825225 633.95L376.1485375 740.01650425C390.7932 754.66116525 414.5368875 754.66116525 429.1815475 740.01650425C443.8262075 725.37184325 443.8262075 701.62815675 429.1815475 686.98349575L323.1075225 580.925L429.1815475 474.8514625C443.8262075 460.2068 443.8262075 436.4631125 429.1815475 421.8184525000001C414.5368875 407.1737925 390.7932 407.1737925 376.1485375 421.8184525000001L270.0825225 527.9000000000001L164.01650425 421.8184525000001C149.37184325 407.1737925 125.62815675 407.1737925 110.98349575 421.8184525000001C96.33883475 436.4631125 96.33883475 460.2068 110.98349575 474.8514625L217.0325215 580.925L110.98349575 686.98349575C96.33883475 701.62815675 96.33883475 725.37184325 110.98349575 740.01650425C125.62815675 754.66116525 149.37184325 754.66116525 164.01650425 740.01650425zM750 526L750 451L550 451L550 526L750 526zM412.5 626C433.2106775 626 450 609.2106775 450 588.5C450 567.7893225 433.2106775 551 412.5 551C391.7893225 551 375 567.7893225 375 588.5C375 609.2106775 391.7893225 626 412.5 626zM137.5 626C158.210678 626 175 609.2106775 175 588.5C175 567.7893225 158.210678 551 137.5 551C116.789322 551 100 567.7893225 100 588.5C100 609.2106775 116.789322 626 137.5 626zM275 776C295.7106775000001 776 312.5 759.210678 312.5 738.5C312.5 717.789322 295.7106775000001 701 275 701C254.2893225 701 237.5 717.789322 237.5 738.5C237.5 759.210678 254.2893225 776 275 776z" />
    <glyph glyph-name="charupizhu2"
      unicode="&#xE6BF;"
      horiz-adv-x="1000" d="M500 751L500 676L175 676L175 201L300 201L300 93.05L421.48505 201L825 201L825 351L900 351L900 201C900 159.578645 866.421355 126 825 126L450 126L225 -74L225 126L175 126C133.57864375 126 100 159.578645 100 201L100 676C100 717.42135625 133.57864375 751 175 751L500 751zM737.5 776C758.2106775 776 775 759.210678 775 738.5L775 626L887.5 626C908.2106775 626 925 609.2106775 925 588.5C925 567.7893225 908.2106775 551 887.5 551L775 551L775 438.5C775 417.7893225000001 758.2106775 401 737.5 401C716.7893225 401 700 417.7893225000001 700 438.5L700 551L587.5 551C566.7893225 551 550 567.7893225 550 588.5C550 609.2106775 566.7893225 626 587.5 626L700 626L700 738.5C700 759.210678 716.7893225 776 737.5 776z" />
    <glyph glyph-name="chazhao"
      unicode="&#xE663;"
      horiz-adv-x="1000" d="M462.5 801C662.7032224999999 801 825 638.70322175 825 438.5C825 342.3559525000001 787.5706250000001 254.9540025 726.48843 190.07071L906.954365 9.5786450000001C921.599025 -5.0660175 921.599025 -28.8097050000001 906.954365 -43.454365C892.3097050000001 -58.0990250000001 868.5660175 -58.0990250000001 853.921355 -43.454365L669.544175 140.9061725C610.84648 99.99208 539.475065 76 462.5 76C262.2967775 76 100 238.2967775000001 100 438.5C100 638.70322175 262.2967775 801 462.5 801zM462.5 726C303.718135 726 175 597.2818649999999 175 438.5C175 279.718135 303.718135 151 462.5 151C621.281865 151 750 279.718135 750 438.5C750 597.2818649999999 621.281865 726 462.5 726z" />
    <glyph glyph-name="chexiao"
      unicode="&#xE664;"
      horiz-adv-x="1000" d="M146.928554 375.3743425C126.217876 375.3743425 109.428554 392.1636650000001 109.428554 412.8743425L109.428554 662.8743425C109.428554 683.58502075 126.217876 700.3743425 146.928554 700.3743425C167.63923225 700.3743425 184.428554 683.58502075 184.428554 662.8743425L184.403554 503.2521825L350.3679650000001 669.1980515C472.4068075 791.23689275 670.2708625 791.23689275 792.309705 669.1980515C912.52707 548.980685 914.32136 355.1846525000001 797.6925699999999 232.77091L792.309705 227.2563124999999L562.5 -2.55339C547.85534 -17.1980525 524.1116525 -17.1980525 509.4669925 -2.55339C495.68378 11.22982 494.873005 33.0730675 507.03466 47.8045175L509.4669925 50.4796174999999L739.276695 280.2893225000001C832.026215 373.03884 832.026215 523.4155225 739.276695 616.1650425C648.126305 707.3154325 501.318765 708.8869910000001 408.249165 620.8797175L403.400975 616.1650425L237.803554 450.6021825L396.96226 450.601125C416.3785200000001 450.601125 432.3482775 435.844885 434.2686525000001 416.9352825000001L434.46226 413.101125C434.46226 392.3904475 417.6729375 375.601125 396.96226 375.601125L151.0201345 375.5787075C150.6544035 375.5402425 150.288215 375.50714 149.92169675 375.4794025L150.88767275 375.5808525C149.66896775 375.452975 148.43288025 375.3834675 147.182257 375.3751825000001L146.928554 375.3743425z" />
    <glyph glyph-name="cuheikuangxian"
      unicode="&#xE665;"
      horiz-adv-x="1000" d="M875 788.5C884.5488175 788.5 893.264055 783.7413645 899.88454 775.90566175C907.741365 769.26405575 912.5 760.5488175 912.5 751L912.5 1C912.5 -8.5488175 907.741365 -17.264055 899.9056625 -23.88454C893.264055 -31.7413650000001 884.5488175 -36.5 875 -36.5L125 -36.5C115.4511825 -36.5 106.73594425 -31.7413650000001 100.115461 -23.9056624999999C92.2586355 -17.264055 87.5 -8.5488175 87.5 1L87.5 751C87.5 760.5488175 92.2586355 769.26405575 100.09433825 775.884539C106.73594425 783.7413645 115.4511825 788.5 125 788.5zM812.5 688.5L187.5 688.5L187.475 63.5L812.5 63.5L812.5 688.5zM512.5 163.5C526.3071175 163.5 537.5 152.3071175 537.5 138.5L537.5 113.5C537.5 99.6928825 526.3071175 88.5 512.5 88.5L487.5 88.5C473.6928825 88.5 462.5 99.6928825 462.5 113.5L462.5 138.5C462.5 152.3071175 473.6928825 163.5 487.5 163.5L512.5 163.5zM512.5 288.5C526.3071175 288.5 537.5 277.3071175 537.5 263.5L537.5 238.5C537.5 224.6928825 526.3071175 213.5 512.5 213.5L487.5 213.5C473.6928825 213.5 462.5 224.6928825 462.5 238.5L462.5 263.5C462.5 277.3071175 473.6928825 288.5 487.5 288.5L512.5 288.5zM262.5 413.5C276.3071175 413.5 287.5 402.3071175 287.5 388.5L287.5 363.5C287.5 349.6928825 276.3071175 338.5 262.5 338.5L237.5 338.5C223.69288125 338.5 212.5 349.6928825 212.5 363.5L212.5 388.5C212.5 402.3071175 223.69288125 413.5 237.5 413.5L262.5 413.5zM387.5 413.5C401.3071175 413.5 412.5 402.3071175 412.5 388.5L412.5 363.5C412.5 349.6928825 401.3071175 338.5 387.5 338.5L362.5 338.5C348.6928825 338.5 337.5 349.6928825 337.5 363.5L337.5 388.5C337.5 402.3071175 348.6928825 413.5 362.5 413.5L387.5 413.5zM637.5 413.5C651.3071175 413.5 662.5 402.3071175 662.5 388.5L662.5 363.5C662.5 349.6928825 651.3071175 338.5 637.5 338.5L612.5 338.5C598.6928825 338.5 587.5 349.6928825 587.5 363.5L587.5 388.5C587.5 402.3071175 598.6928825 413.5 612.5 413.5L637.5 413.5zM762.5 413.5C776.3071175 413.5 787.5 402.3071175 787.5 388.5L787.5 363.5C787.5 349.6928825 776.3071175 338.5 762.5 338.5L737.5 338.5C723.6928825 338.5 712.5 349.6928825 712.5 363.5L712.5 388.5C712.5 402.3071175 723.6928825 413.5 737.5 413.5L762.5 413.5zM512.5 413.5C526.3071175 413.5 537.5 402.3071175 537.5 388.5L537.5 363.5C537.5 349.6928825 526.3071175 338.5 512.5 338.5L487.5 338.5C473.6928825 338.5 462.5 349.6928825 462.5 363.5L462.5 388.5C462.5 402.3071175 473.6928825 413.5 487.5 413.5L512.5 413.5zM512.5 538.5C526.3071175 538.5 537.5 527.3071175 537.5 513.5L537.5 488.5C537.5 474.6928825 526.3071175 463.5 512.5 463.5L487.5 463.5C473.6928825 463.5 462.5 474.6928825 462.5 488.5L462.5 513.5C462.5 527.3071175 473.6928825 538.5 487.5 538.5L512.5 538.5zM512.5 663.5C526.3071175 663.5 537.5 652.30711875 537.5 638.5L537.5 613.5C537.5 599.6928825 526.3071175 588.5 512.5 588.5L487.5 588.5C473.6928825 588.5 462.5 599.6928825 462.5 613.5L462.5 638.5C462.5 652.30711875 473.6928825 663.5 487.5 663.5L512.5 663.5z" />
    <glyph glyph-name="daochu"
      unicode="&#xE667;"
      horiz-adv-x="1000" d="M862.5 476C878.8304674999999 476 892.7228725000001 465.5614125 897.8687624999999 450.9926875L900 451L900 51C900 9.5786450000001 866.421355 -24 825 -24L175 -24C133.57864375 -24 100 9.5786450000001 100 51L100 451L102.131238 450.9926875C107.277128 465.5614125 121.16953275 476 137.5 476C153.83046725 476 167.722872 465.5614125 172.868762 450.9926875L175 451L175 51L825 51L825 451L827.1312375000001 450.9926875C832.2771274999999 465.5614125 846.1695325000001 476 862.5 476zM534.12353 769.836131L671.62353 619.8361299999999L674.0445375 616.8567075000001C685.2669925 601.5166475 683.26817 579.8652175 668.8361775 566.8764225L665.856755 564.455415C650.5166925 553.23296 628.8652625 555.2317825 615.87647 569.663775L537.5 654.7750464999999L537.500275 213.5C537.500275 192.7893225 520.710955 176 500.000275 176C479.2895975 176 462.500275 192.7893225 462.500275 213.5L462.5 648.0250465L382.766505 568.23345L379.918445 565.6591925C365.189425 553.6459950000001 343.462865 554.5040799999999 329.733495 568.23345C315.088835 582.87811 315.088835 606.6217975 329.733495 621.2664575L479.7334949999999 771.26645775L482.5103774999999 773.7830585C497.8101225 786.32884275 520.5962774999999 784.866413 534.12353 769.836131z" />
    <glyph glyph-name="daoru"
      unicode="&#xE668;"
      horiz-adv-x="1000" d="M862.5 476C878.8304674999999 476 892.7228725000001 465.5614125 897.8687624999999 450.9926875L900 451L900 51C900 9.5786450000001 866.421355 -24 825 -24L175 -24C133.57864375 -24 100 9.5786450000001 100 51L100 451L102.131238 450.9926875C107.277128 465.5614125 121.16953275 476 137.5 476C153.83046725 476 167.722872 465.5614125 172.868762 450.9926875L175 451L175 51L825 51L825 451L827.1312375000001 450.9926875C832.2771274999999 465.5614125 846.1695325000001 476 862.5 476zM500.000275 782.2500465C520.710955 782.2500465 537.500275 765.46072475 537.500275 744.7500465L537.5 303.475L615.87647 388.58627C628.8652625 403.0182625000001 650.5166925 405.017085 665.856755 393.7946325L668.8361775 391.3736225C683.26817 378.38483 685.2669925 356.7334 674.0445375 341.39334L671.62353 338.4139150000001L534.12353 188.4139150000001C520.5962774999999 173.3836325 497.8101225 171.9212025000001 482.5103774999999 184.4669875000001L479.7334949999999 186.9835875L329.733495 336.9835875C315.088835 351.62825 315.088835 375.3719375000001 329.733495 390.0165975000001C343.462865 403.7459675 365.189425 404.6040525 379.918445 392.5908550000001L382.766505 390.0165975000001L462.5 310.225L462.500275 744.7500465C462.500275 765.46072475 479.2895975 782.2500465 500.000275 782.2500465z" />
    <glyph glyph-name="dayin"
      unicode="&#xE666;"
      horiz-adv-x="1000" d="M700 801C741.4213550000001 801 775 767.42135625 775 726L775 601L825 601C866.421355 601 900 567.421355 900 526L900 176C900 162.1928825 888.8071175 151 875 151L775 151L775 26C775 -15.4213549999999 741.4213550000001 -49 700 -49L300 -49C258.578645 -49 225 -15.4213549999999 225 26L225 151L125 151C111.19288125 151 100 162.1928825 100 176L100 526C100 567.421355 133.57864375 601 175 601L225 601L225 726C225 767.42135625 258.578645 801 300 801L700 801zM700 276L300 276L300 26L700 26L700 276zM825 526L175 526L175 226L225 226L225 276C225 317.4213550000001 258.578645 351 300 351L700 351C741.4213550000001 351 775 317.4213550000001 775 276L775 226L825 226L825 526zM737.5 476C758.2106775 476 775 459.2106775 775 438.5C775 417.7893225000001 758.2106775 401 737.5 401L637.5 401C616.7893225 401 600 417.7893225000001 600 438.5C600 459.2106775 616.7893225 476 637.5 476L737.5 476zM700 726L300 726L300 601L700 601L700 726z" />
    <glyph glyph-name="dongjiechuangti"
      unicode="&#xE669;"
      horiz-adv-x="1000" d="M825 776C866.421355 776 900 742.42135625 900 701L900 51C900 9.5786450000001 866.421355 -24 825 -24L175 -24C133.57864375 -24 100 9.5786450000001 100 51L99.98305225 390.975L95.00805225 395.9438375L99.98305225 400.925L100 701C100 742.42135625 133.57864375 776 175 776L825 776zM825 338.5L537.4830525 338.5L537.4830525 51L825 51L825 338.5zM462.4830525 282.375L231.10805225 51L462.4830525 51L462.4830525 282.375zM412.5580525000001 338.5L175 338.5L174.98305225 100.925L412.5580525000001 338.5zM462.4830525 657.375L218.60805225 413.5L462.4830525 413.5L462.4830525 657.375zM824.9830525 644.875L593.6080525 413.5L825 413.5L824.9830525 644.875zM775.0580525 701L537.4830525 701L537.4830525 463.425L775.0580525 701zM400.0580525000001 701L175 701L174.98305225 475.925L400.0580525000001 701z" />
    <glyph glyph-name="dongjieshoulie"
      unicode="&#xE66A;"
      horiz-adv-x="1000" d="M825 776C866.421355 776 900 742.42135625 900 701L900 51C900 9.5786450000001 866.421355 -24 825 -24L175 -24C133.57864375 -24 100 9.5786450000001 100 51L99.98305225 390.975L95.00805225 395.9438375L99.98305225 400.925L100 701C100 742.42135625 133.57864375 776 175 776L825 776zM825 338.5L537.4830525 338.5L537.4830525 51L825 51L825 338.5zM462.4830525 282.375L231.10805225 51L462.4830525 51L462.4830525 282.375zM412.5580525000001 338.5L175 338.5L174.98305225 100.925L412.5580525000001 338.5zM825 701L537.4830525 701L537.4830525 413.5L825 413.5L825 701zM462.4830525 657.375L218.60805225 413.5L462.4830525 413.5L462.4830525 657.375zM400.0580525000001 701L175 701L174.98305225 475.925L400.0580525000001 701z" />
    <glyph glyph-name="dongjieshouxing"
      unicode="&#xE66B;"
      horiz-adv-x="1000" d="M825 776C866.421355 776 900 742.42135625 900 701L900 51C900 9.5786450000001 866.421355 -24 825 -24L175 -24C133.57864375 -24 100 9.5786450000001 100 51L99.98305225 390.975L95.00805225 395.9438375L99.98305225 400.925L100 701C100 742.42135625 133.57864375 776 175 776L825 776zM462.4830525 338.5L175 338.5L175 51L462.4830525 51L462.4830525 338.5zM825 338.5L537.4830525 338.5L537.4830525 51L825 51L825 338.5zM462.4830525 657.375L218.60805225 413.5L462.4830525 413.5L462.4830525 657.375zM824.9830525 644.875L593.6080525 413.5L825 413.5L824.9830525 644.875zM775.0580525 701L537.4830525 701L537.4830525 463.425L775.0580525 701zM400.0580525000001 701L175 701L174.98305225 475.925L400.0580525000001 701z" />
    <glyph glyph-name="duiqijuzhong"
      unicode="&#xE66C;"
      horiz-adv-x="1000" d="M137.5 751L862.5 751C883.2106775 751 900 734.210678 900 713.5C900 692.789322 883.2106775 676 862.5 676L137.5 676C116.789322 676 100 692.789322 100 713.5C100 734.210678 116.789322 751 137.5 751zM137.5 76L862.5 76C883.2106775 76 900 59.2106775 900 38.5C900 17.7893225 883.2106775 1 862.5 1L137.5 1C116.789322 1 100 17.7893225 100 38.5C100 59.2106775 116.789322 76 137.5 76zM306.25 426L681.25 426C701.9606775 426 718.75 409.2106775 718.75 388.5C718.75 367.7893225000001 701.9606775 351 681.25 351L306.25 351C285.5393225 351 268.75 367.7893225000001 268.75 388.5C268.75 409.2106775 285.5393225 426 306.25 426z" />
    <glyph glyph-name="duiqiyou"
      unicode="&#xE66D;"
      horiz-adv-x="1000" d="M862.5 751L137.5 751C116.7893225 751 100 734.210678 100 713.5C100 692.789322 116.7893225 676 137.5 676L862.5 676C883.210678 676 900 692.789322 900 713.5C900 734.210678 883.210678 751 862.5 751zM862.5 76L137.5 76C116.7893225 76 100 59.2106775 100 38.5C100 17.7893225 116.7893225 1 137.5 1L862.5 1C883.210678 1 900 17.7893225 900 38.5C900 59.2106775 883.210678 76 862.5 76zM862.5 426L487.5 426C466.7893225 426 450 409.2106775 450 388.5C450 367.7893225000001 466.7893225 351 487.5 351L862.5 351C883.210678 351 900 367.7893225000001 900 388.5C900 409.2106775 883.210678 426 862.5 426z" />
    <glyph glyph-name="duiqizuo"
      unicode="&#xE66E;"
      horiz-adv-x="1000" d="M137.5 751L862.5 751C883.2106775 751 900 734.210678 900 713.5C900 692.789322 883.2106775 676 862.5 676L137.5 676C116.789322 676 100 692.789322 100 713.5C100 734.210678 116.789322 751 137.5 751zM137.5 76L862.5 76C883.2106775 76 900 59.2106775 900 38.5C900 17.7893225 883.2106775 1 862.5 1L137.5 1C116.789322 1 100 17.7893225 100 38.5C100 59.2106775 116.789322 76 137.5 76zM137.5 426L512.5 426C533.2106775 426 550 409.2106775 550 388.5C550 367.7893225000001 533.2106775 351 512.5 351L137.5 351C116.789322 351 100 367.7893225000001 100 388.5C100 409.2106775 116.789322 426 137.5 426z" />
    <glyph glyph-name="fuzhi"
      unicode="&#xE6AF;"
      horiz-adv-x="1000" d="M847.3214275 801C890.2221199999999 801 925 766.222119 925 723.3214285L925 153.6785725C925 110.7778800000001 890.2221199999999 76 847.3214275 76L800 76L800 28.6785725C800 -14.2221199999999 765.2221199999999 -49 722.3214275 -49L152.6785715 -49C109.777881 -49 75 -14.2221199999999 75 28.6785725L75 598.3214275C75 641.222119 109.777881 676 152.6785715 676L200 676L200 723.3214285C200 766.222119 234.777881 801 277.6785725 801L847.3214275 801zM200 601L150 601L150 26L725 26L725 76L277.6785725 76C234.777881 76 200 110.7778800000001 200 153.6785725L200 601zM850 726L275 726L275 151L850 151L850 726z" />
    <glyph glyph-name="gaoliangsuozaixinglie"
      unicode="&#xE6C0;"
      horiz-adv-x="1000" d="M675 151L675 -36.5C675 -57.2106775 658.2106775 -74 637.5 -74L362.5 -74C341.7893225 -74 325 -57.2106775 325 -36.5L325 151L400 151L400 1L600 1L600 151L675 151zM725 551L912.5 551C933.2106775 551 950 534.2106775 950 513.5L950 238.5C950 217.7893225 933.2106775 201 912.5 201L725 201L725 276L875 276L875 476L725 476L725 551zM275 476L125 476L125 276L275 276L275 201L87.5 201C66.789322 201 50 217.7893225 50 238.5L50 513.5C50 534.2106775 66.789322 551 87.5 551L275 551L275 476zM325 513.5C325 534.2106775 341.7893225 551 362.5 551L637.5 551C658.2106775 551 675 534.2106775 675 513.5L675 238.5C675 217.7893225 658.2106775 201 637.5 201L362.5 201C341.7893225 201 325 217.7893225 325 238.5zM600 476L400 476L400 276L600 276L600 476zM637.5 826C658.2106775 826 675 809.210678 675 788.5L675 601L600 601L600 751L400 751L400 601L325 601L325 788.5C325 809.210678 341.7893225 826 362.5 826L637.5 826z" />
    <glyph glyph-name="gengduo"
      unicode="&#xE6A7;"
      horiz-adv-x="1000" d="M699.8922249999999 404.1407824999999C714.5368875 389.4961224999999 714.5368875 365.752435 699.8922249999999 351.107775L364.0165049999998 15.2320524999999C349.3718424999999 0.5873925000002 325.6281574999999 0.5873925000002 310.9834949999999 15.2320525000002C296.3388349999999 29.8767150000002 296.3388349999999 53.6204 310.983495 68.2650624999999L620.3427125000001 377.6242799999999L310.9834950000001 686.98349575C297.2002850000001 700.766706 296.3895075000001 722.609953 308.5511650000001 737.34140275L310.9834950000001 740.01650425C325.6281575000001 754.66116525 349.3718425 754.66116525 364.0165050000001 740.01650425L699.8922249999999 404.1407824999999z" />
    <glyph glyph-name="geshishua"
      unicode="&#xE66F;"
      horiz-adv-x="1000" d="M712.5 826C760.824915 826 800 786.8249155 800 738.5L800 676.025L862.5 676C883.2106775 676 900 659.210678 900 638.5L899.975 638L899.9990875 438.764445C899.999695 438.6763675000001 900 438.5882200000001 900 438.5C900 417.7893225000001 883.2106775 401 862.5 401L487.5 401L487.5 326L500 326C546.714085 326 584.87816 289.39306 587.3705275 243.30088L587.5 238.5L587.5 13.5C587.5 -34.824915 548.324915 -74 500 -74L400 -74C351.675085 -74 312.5 -34.824915 312.5 13.5L312.5 238.5C312.5 286.8249150000001 351.675085 326 400 326L412.5 326L412.5 438.5C412.5 459.2106775 429.2893225000001 476 450 476L824.975 476L824.975 601.025L799.1140674999999 601.0012425C793.0492325 558.5969600000001 756.58133 526 712.5 526L187.5 526C139.1750845 526 100 565.1750850000001 100 613.5L100 738.5C100 786.8249155 139.1750845 826 187.5 826L712.5 826zM500 251L400 251C393.0964400000001 251 387.5 245.4035600000001 387.5 238.5L387.5 13.5C387.5 6.59644 393.0964400000001 1 400 1L500 1C506.90356 1 512.5 6.59644 512.5 13.5L512.5 238.5C512.5 245.4035600000001 506.90356 251 500 251zM712.5 751L187.5 751C180.59644075 751 175 745.40355925 175 738.5L175 613.5C175 606.59644 180.59644075 601 187.5 601L712.5 601C719.4035600000001 601 725 606.59644 725 613.5L725 738.5C725 745.40355925 719.4035600000001 751 712.5 751z" />
    <glyph glyph-name="gongshi"
      unicode="&#xE670;"
      horiz-adv-x="1000" d="M937.5 301.48077C931.1651575 283.4519225 918.495475 259.4134625000001 912.1606325 235.375L899.49095 235.375C893.1561075 247.39423 880.4864249999999 253.4038450000001 874.1515825 253.4038450000001C861.4819000000001 253.4038450000001 848.8122175000001 247.39423 836.1425350000001 235.375C833.7669675000001 233.121395 831.1686925 230.6565125 828.3477099999999 227.9011275000001L822.4087950000002 221.9795449999999C810.976385 210.32711 796.549775 194.058895 779.12896 169.26923C785.4638 151.2403850000001 791.7986424999999 133.2115375 798.133485 109.1730775L810.8031675 73.1153850000001C810.8031675 67.1057700000001 817.13801 67.1057700000001 823.4728499999999 67.1057700000001C836.1425350000001 67.1057700000001 855.14706 79.125 880.4864249999999 103.1634625L899.49095 91.14423C874.1515825 67.1057700000001 848.8122175000001 43.0673075 823.4728499999999 25.0384625C798.133485 7.0096149999999 772.7941175 1 760.124435 1C747.45475 1 734.7850675 13.0192299999999 728.450225 31.0480775000001L709.4457024999999 97.1538450000001C665.10181 37.0576925 614.4230775 7.0096149999999 576.4140275 7.0096149999999C557.4095025 7.0096149999999 544.73982 13.0192299999999 525.735295 19.0288449999999C538.4049775 37.0576925 544.73982 55.0865375 551.07466 79.125L563.7443450000001 79.125C576.4140275 67.1057700000001 582.74887 61.0961550000001 595.4185525 61.0961550000001C608.088235 61.0961550000001 620.7579175000001 67.1057700000001 627.09276 73.1153850000001C639.7624425 79.125 658.7669675 97.1538450000001 684.106335 127.2019225L690.4411775 133.2115375C684.106335 145.23077 677.7714925 163.259615 671.4366525 193.3076925C658.7669675 217.346155 658.7669675 235.375 652.4321275 235.375L646.097285 241.384615C639.7624425 241.384615 627.09276 235.375 601.7533925 217.346155L589.08371 205.3269225L570.0791849999999 217.346155C601.7533925 247.39423 627.09276 271.4326925000001 652.4321275 283.4519225C677.7714925 295.471155 696.7760175 307.4903850000001 709.4457024999999 307.4903850000001C715.7805425 307.4903850000001 728.450225 301.48077 734.7850675 295.471155C741.11991 283.4519225 747.45475 265.4230775 760.124435 235.375C760.124435 229.3653850000001 766.4592749999999 223.35577 766.4592749999999 217.346155C804.468325 265.4230775 829.8076925 289.4615375 842.4773749999999 301.48077C855.14706 307.4903850000001 874.1515825 313.5 893.1561075 313.5C905.8257925 313.5 924.8303175 313.5 937.5 301.48077zM631.5134325 782.25C663.12529 776.862068975 700.0057899999999 771.474137925 731.6176475 755.31034475C721.0803625 739.1465517500001 710.543075 712.2068965 694.7371475 674.49137925C694.7371475 674.49137925 694.7371475 669.10344825 689.4685049999999 658.32758625L652.5880025 663.71551725C652.5880025 712.2068965 636.782075 739.1465517500001 599.901575 739.1465517500001C578.8270025 739.1465517500001 563.021075 728.37068975 547.215145 706.8189655C531.4092175 685.2672415 510.334645 631.387931 483.99143 545.1810345L589.36429 545.1810345L594.6329324999999 539.7931034999999C584.095645 529.0172425000001 573.55836 512.8534475 568.2897174999999 502.077585C547.215145 507.4655175 515.6032875 507.4655175 473.454145 507.4655175L383.8872175 216.5172425C362.812645 141.0862075 325.932145 81.8189650000001 278.5143585 49.4913800000002C231.0965725 17.1637925000001 188.94742925 1 146.79828625 1C120.45507175 1 88.8432145 6.38793 62.5 22.5517250000001C78.305928675 44.1034475 94.11185725 65.6551725000001 109.917786 92.5948275L125.72371475 92.5948275C136.2610005 76.431035 146.79828625 65.6551725000001 157.335572 60.2672425C167.87285775 60.2672425 178.4101435 54.8793099999999 188.94742925 54.8793099999999C210.022001 54.8793099999999 225.8279295 65.6551725000001 236.3652155 87.2068975C246.90250125 108.75862 262.70842975 141.0862075 273.2457155 189.577585L362.812645 507.4655175C331.2007875 507.4655175 310.12621575 507.4655175 299.58893 502.077585L310.12621575 534.4051724999999C336.46943 539.7931034999999 357.5440025 545.1810345 378.6185725000001 555.9568965000001C394.4245025 615.224138 410.23043 652.93965525 426.03636 674.49137925C441.8422875 696.0431035 468.1855025 717.5948275 505.0660025 744.53448275C541.9465025 766.0862069 584.095645 782.25 631.5134325 782.25z" />
    <glyph glyph-name="gongshijiancha"
      unicode="&#xE671;"
      horiz-adv-x="1000" d="M900 404.0330075C914.64466 389.3883475 914.64466 365.64466 900 351L541.732165 -41.1336125C535.3251275 -47.5406525 527.1764775 -51.1446125000001 518.810125 -51.9454925L515.2156625 -52.1171075C505.618575 -52.1171075 496.0214875 -48.4559425 488.6991575 -41.1336125L300 147.9669925C285.35534 162.6116525 285.35534 186.35534 300 201C314.64466 215.6446600000001 338.3883475 215.6446600000001 353.0330075 201L515.2 38.425L846.9669925 404.0330075C861.6116525000001 418.67767 885.35534 418.67767 900 404.0330075zM523.8141575 814.9850285C532.343385 810.36502975 539.3446 803.3638165 543.9645975000001 794.83458775L761.4972675 393.2050175L708.2472675 334.0550175L500 718.525L138.4 51L326.0472675 51.0050175L398.4722675 -23.9949825L96.447267 -24C68.8330295 -24 46.447267 -1.6142374999999 46.447267 26C46.447267 34.3164549999999 48.52168175 42.5015675 52.4826685 49.8141575L456.0354025 794.83458775C469.1875975 819.1155650000001 499.53318 828.1372245 523.8141575 814.9850285zM849.9722674999999 229.9050175L947.5173325 49.8141575C960.6695275 25.53318 951.6478675 -4.8124025 927.36689 -17.9645975C920.0543 -21.925585 911.8691875 -24 903.5527325 -24L623.9472675 -23.9949825L691.4722675 51.0050175L861.575 51L796.6972675 170.7550175L849.9722674999999 229.9050175zM500 251C527.6142375000001 251 550 228.6142375000001 550 201C550 173.3857625 527.6142375000001 151 500 151C472.3857625 151 450 173.3857625 450 201C450 228.6142375000001 472.3857625 251 500 251zM500 576C520.7106775 576 537.5 559.2106775 537.5 538.5L537.5 338.5C537.5 317.7893225000001 520.7106775 301 500 301C479.2893225 301 462.5 317.7893225000001 462.5 338.5L462.5 538.5C462.5 559.2106775 479.2893225 576 500 576z" />
    <glyph glyph-name="gongsi"
      unicode="&#xE672;"
      horiz-adv-x="1000" d="M696.2846175 749.119919C698.742855 742.31249425 700 735.12981625 700 727.8921399999999L700 456.00916L825.1126149999999 411.3153225C840.0373500000001 405.9850600000001 850 391.8480100000001 850 376L849.975 26.00916L887.5 26C908.2106775 26 925 9.2106775 925 -11.5C925 -32.2106775 908.2106775 -49 887.5 -49L112.5 -49C91.789322 -49 75 -32.2106775 75 -11.5C75 9.2106775 91.789322 26 112.5 26L175 26.00916L175 601C175 616.799675 184.90288775 630.9044995 199.7633325 636.27077125L616.2722200000001 786.67675875C648.73807 798.40053725 684.56084 781.5857675 696.2846175 749.119919zM700 376.35916L700 26.00916L774.975 26.00916L775 349.5750000000001L700 376.35916zM625 710.1L250 574.7L250 26.00916L625 26.00916L625 710.1zM512.5 176C533.2106775 176 550 159.2106775 550 138.5C550 117.7893225 533.2106775 101 512.5 101L362.5 101C341.7893225 101 325 117.7893225 325 138.5C325 159.2106775 341.7893225 176 362.5 176L512.5 176zM512.5 326C533.2106775 326 550 309.2106775 550 288.5C550 267.7893225000001 533.2106775 251 512.5 251L362.5 251C341.7893225 251 325 267.7893225000001 325 288.5C325 309.2106775 341.7893225 326 362.5 326L512.5 326zM512.5 476C533.2106775 476 550 459.2106775 550 438.5C550 417.7893225000001 533.2106775 401 512.5 401L362.5 401C341.7893225 401 325 417.7893225000001 325 438.5C325 459.2106775 341.7893225 476 362.5 476L512.5 476z" />
    <glyph glyph-name="goujiguanxi"
      unicode="&#xE673;"
      horiz-adv-x="1000" d="M775 363.5L775 251L875 251C916.421355 251 950 217.4213550000001 950 176L950 51C950 9.5786450000001 916.421355 -24 875 -24L625 -24C583.5786449999999 -24 550 9.5786450000001 550 51L550 176C550 217.4213550000001 583.5786449999999 251 625 251L700 251L700 326L300 326L300 251L375 251C416.4213550000001 251 450 217.4213550000001 450 176L450 51C450 9.5786450000001 416.4213550000001 -24 375 -24L125 -24C83.57864375 -24 50 9.5786450000001 50 51L50 176C50 217.4213550000001 83.57864375 251 125 251L225 251L225 363.5C225 384.2106775 241.789322 401 262.5 401L462.5 401L462.5 501L375 501C333.578645 501 300 534.578645 300 576L300 701C300 742.42135625 333.578645 776 375 776L625 776C666.4213550000001 776 700 742.42135625 700 701L700 576C700 534.578645 666.4213550000001 501 625 501L537.5 501L537.5 401L737.5 401C758.2106775 401 775 384.2106775 775 363.5zM375 176L125 176L125 51L375 51L375 176zM875 176L625 176L625 51L875 51L875 176zM625 701L375 701L375 576L625 576L625 701z" />
    <glyph glyph-name="hebingdanyuange"
      unicode="&#xE674;"
      horiz-adv-x="1000" d="M362.5 776C409.214085 776 447.37816 739.39306 449.8705275 693.30088L450 688.5L450 576C450 555.2893225 433.2106775 538.5 412.5 538.5C393.0075975 538.5 376.9887825 553.3722025 375.171665 572.3885L375 576L375 688.5C375 694.63649725 370.57812 699.74020925 364.74689 700.79860825L362.5 701L162.5 701C156.36350275 701 151.25979075 696.578121 150.20139175 690.74689075L150 688.5L150 76C150 69.8635025 154.421879 64.75979 160.25310925 63.7013925L162.5 63.5L362.5 63.5C368.6364975 63.5 373.74021 67.92188 374.7986075 73.75311L375 76L375 201C375 221.7106775 391.7893225 238.5 412.5 238.5C431.9924025 238.5 448.0112175000001 223.6277975000001 449.8283350000001 204.6115L450 201L450 76C450 29.285915 413.3930600000001 -8.8781600000001 367.30088 -11.3705275000001L362.5 -11.5L162.5 -11.5C115.785915 -11.5 77.62183875 25.1069400000001 75.1294715 71.19912L75 76L75 688.5C75 735.2140850000001 111.60694 773.37816125 157.69912 775.8705285L162.5 776L362.5 776zM350 499.563405C355.6015975000001 499.563405 361.0409 497.68215 365.44554 494.2213625L474.98078 408.1579575C485.83757 399.6276225000001 487.723535 383.9112525000001 479.1932 373.05446C477.9619725 371.4874450000001 476.547795 370.0732675 474.98078 368.8420425L365.44554 282.7786375C354.5887475 274.2483024999999 338.8723775 276.1342675 330.3420425 286.9910575C326.8812525 291.3956975 325 296.8349975 325 302.436595L325 351.0134049999999L237.5 351C216.789322 351 200 367.7893225000001 200 388.5C200 409.2106775 216.789322 426 237.5 426L325 426.013405L325 474.563405C325 488.3705225 336.1928825 499.563405 350 499.563405zM837.5 776C884.214085 776 922.37816 739.39306 924.8705275 693.30088L925 688.5L925 76C925 29.285915 888.3930599999999 -8.8781600000001 842.30088 -11.3705275000001L837.5 -11.5L637.5 -11.5C590.785915 -11.5 552.62184 25.1069400000001 550.1294725 71.19912L550 76L550 201C550 221.7106775 566.7893225 238.5 587.5 238.5C606.9924025 238.5 623.0112175 223.6277975000001 624.828335 204.6115L625 201L625 76C625 69.8635025 629.42188 64.75979 635.25311 63.7013925L637.5 63.5L837.5 63.5C843.6364975 63.5 848.74021 67.92188 849.7986075 73.75311L850 76L850 688.5C850 694.63649725 845.57812 699.74020925 839.74689 700.79860825L837.5 701L637.5 701C631.3635025 701 626.2597900000001 696.578121 625.2013925 690.74689075L625 688.5L625 576C625 555.2893225 608.2106775 538.5 587.5 538.5C568.0075975 538.5 551.9887825 553.3722025 550.171665 572.3885L550 576L550 688.5C550 735.2140850000001 586.60694 773.37816125 632.69912 775.8705285L637.5 776L837.5 776zM650.1163574999999 500.3671125C663.923475 500.3671125 675.1163574999999 489.17423 675.1163574999999 475.3671125L675.1163574999999 426.8171125L762.6163574999999 426.8037075C783.327035 426.8037075 800.1163574999999 410.0143875 800.1163574999999 389.3037075C800.1163574999999 368.59303 783.327035 351.8037075 762.6163574999999 351.8037075L675.1163574999999 351.8171125L675.1163574999999 303.2403050000001C675.1163574999999 297.6387075 673.2351025 292.199405 669.774315 287.794765C661.24398 276.937975 645.5276074999999 275.05201 634.6708175 283.5823449999999L525.1355775000001 369.64575C523.56856 370.8769775 522.1543825 372.291155 520.9231575 373.8581700000001C512.39282 384.71496 514.2787850000001 400.43133 525.1355775000001 408.9616675L634.6708175 495.02507C639.0754575 498.4858575 644.5147575 500.3671125 650.1163574999999 500.3671125z" />
    <glyph glyph-name="huobi"
      unicode="&#xE675;"
      horiz-adv-x="1000" d="M777.3610325 803.125232C777.5215900000001 803.0338825 777.68145 802.94130825 777.8405925000001 802.847518C795.110865 792.66944625 800.8602275 770.4181677500001 790.682155 753.1478970000001L600.15 429.9022L773.4375 429.89104C795.0111224999999 429.89104 812.5 412.4021625000001 812.5 390.82854C812.5 369.254915 795.0111224999999 351.76604 773.4375 351.76604L531.25 351.7772L531.25 245.6271999999999L773.4375 245.6194000000001C795.0111224999999 245.6194000000001 812.5 228.1305225 812.5 206.5569000000001C812.5 184.9832775 795.0111224999999 167.4944000000001 773.4375 167.4944000000001L531.25 167.5021999999999L531.25 -29.4535400000001C531.25 -51.0271624999999 513.7611224999999 -68.5160400000001 492.1875 -68.5160400000001C470.6138775000001 -68.5160400000001 453.125 -51.0271624999999 453.125 -29.4535400000001L453.125 167.5021999999999L226.5625 167.4944000000001C204.988877 167.4944000000001 187.5 184.9832775 187.5 206.5569000000001C187.5 228.1305225 204.988877 245.6194000000001 226.5625 245.6194000000001L453.125 245.6271999999999L453.125 351.7772L226.5625 351.76604C204.988877 351.76604 187.5 369.254915 187.5 390.82854C187.5 412.4021625000001 204.988877 429.89104 226.5625 429.89104L399.825 429.9022L209.3178445 753.1478970000001C199.1397725 770.4181677500001 204.88913575 792.66944625 222.15940675 802.847518C222.318551 802.94130825 222.47840925 803.0338825 222.638967 803.125232C240.40925025 813.23566875 263.0046675 807.21301225 273.3852275 789.59915775L485.375 429.9022L514.6 429.9022L726.6147725 789.59915775C736.9953325 807.21301225 759.59075 813.23566875 777.3610325 803.125232z" />
    <glyph glyph-name="jiacu"
      unicode="&#xE676;"
      horiz-adv-x="1000" d="M200 726C200 767.42135625 233.57864375 801 275 801L562.5 801C679.86051 801 775 705.86050925 775 588.5L775 563.5C775 505.0356675 751.389845 452.085785 713.1840975 413.6649075000001C807.2343225 382.0976125 875 293.2125675 875 188.5C875 57.3323725 768.6676275 -49 637.5 -49L275 -49C233.57864375 -49 200 -15.4213549999999 200 26L200 726zM637.5 351L275 351L275 26L637.5 26C727.2462724999999 26 800 98.7537275000001 800 188.5C800 278.2462724999999 727.2462724999999 351 637.5 351zM562.5 726L275 726L275 426L562.5 426C636.5869775 426 696.9884774999999 484.5945 699.89082 557.9698225L700 563.5L700 588.5C700 664.439153 638.4391525 726 562.5 726z" />
    <glyph glyph-name="jiangxu"
      unicode="&#xE6B0;"
      horiz-adv-x="1000" d="M712.5 776C733.2106775 776 750 759.210678 750 738.5L749.975975 107.0500000000001L845.0825225000001 202.1485375000001C858.81189 215.8779075 880.5384525 216.735995 895.2674699999999 204.722795L898.1155299999999 202.1485375000001C912.76019 187.5038775000001 912.76019 163.76019 898.1155299999999 149.11553L746.32177 -2.7168975C740.27371 -15.30779 727.4019425 -24 712.5 -24C697.5980575 -24 684.72629 -15.30779 678.67823 -2.7168975L526.88447 149.11553C512.23981 163.76019 512.23981 187.5038775000001 526.88447 202.1485375000001C541.52913 216.7932 565.2728175 216.7932 579.9174775 202.1485375000001L674.975975 107.0749999999999L675 738.5C675 759.210678 691.7893225 776 712.5 776zM257.801665 339.7575325C272.1431775000001 367.1367825000001 311.589245 366.38536 324.8776175000001 338.4797775000001L467.73476 38.4797775C476.638975 19.780925 468.6988525 -2.5957850000001 450 -11.5C431.3011475 -20.4042149999999 408.9244375 -12.4640924999999 400.0202225 6.2347599999999L289.4274900000001 238.50727L167.09617325 4.9570075C158.051562 -12.3099774999999 137.44445475 -19.5991425000001 119.75606275 -12.3851075000001L116.4772285 -10.8614125C98.13105675 -1.2515125 91.04890875 21.4113599999999 100.65880825 39.7575325L257.801665 339.7575325zM412.5 776C445.9089325 776 462.6401875 735.607178 439.0165050000001 711.98349575L228 501L425 501C444.4924025 501 460.5112175 486.1277975 462.328335 467.1115L462.5 463.5C462.5 442.7893225000001 445.7106775 426 425 426L137.5 426C104.091068 426 87.3598135 466.3928225 110.98349575 490.016505L321.975 701L137.5 701C118.007597 701 101.988783 715.872202 100.1716645 734.8884997499999L100 738.5C100 759.210678 116.789322 776 137.5 776L412.5 776zM200 151H375V76H200V151z" />
    <glyph glyph-name="jianqie"
      unicode="&#xE6A8;"
      horiz-adv-x="1000" d="M792.5240474999999 805.8715932499999C810.46002 795.51625425 816.60534 772.581614 806.25 754.6456405L541.6999999999999 296.4269025L594.11914 205.6187125C623.09834 262.2419125 682.0229525 301 750 301C846.64983 301 925 222.64983 925 126C925 29.3501700000001 846.64983 -49 750 -49C671.4720125 -49 605.02466 2.7233525 582.8676525 73.9603525L581.9784625 76.99675C581.28585 77.9692525 580.633185 78.98351 580.0240474999999 80.0385675L498.3749999999999 221.4019025L420.5144725 86.4598475C402.5909925 8.85432 333.051795 -49 250 -49C153.35016875 -49 75 29.3501700000001 75 126C75 222.64983 153.35016875 301 250 301C316.7991275 301 374.8568275 263.57349 404.3475225 208.5460449999999L455.075 296.4269025L192.52404725 751.20825625C182.16870825 769.1442295 188.3140265 792.07886975 206.25 802.43420875C224.1859735 812.789548 247.1206135 806.6442294999999 257.4759525 788.70825625L498.3749999999999 371.4519025L741.298095 792.1456405C751.653435 810.081614 774.588075 816.22693225 792.5240474999999 805.8715932499999zM250 226C194.771525 226 150 181.228475 150 126C150 70.771525 194.771525 26 250 26C305.228475 26 350 70.771525 350 126C350 181.228475 305.228475 226 250 226zM750 226C694.771525 226 650 181.228475 650 126C650 70.771525 694.771525 26 750 26C805.228475 26 850 70.771525 850 126C850 181.228475 805.228475 226 750 226z" />
    <glyph glyph-name="jianshaoxiaoshuweishu"
      unicode="&#xE677;"
      horiz-adv-x="1000" d="M372.78597 788.5C458.4011425 788.5 527.8059525 719.0951895000001 527.8059525 633.480017L527.8059525 445.8587975C527.8059525 360.2436250000001 458.4011425 290.838815 372.78597 290.838815C287.1707975 290.838815 217.7659865 360.2436250000001 217.7659865 445.8587975L217.7659865 633.480017C217.7659865 719.0951895000001 287.1707975 788.5 372.78597 788.5zM372.78597 726.2923519999999C321.416865 726.2923519999999 279.77398 684.6494655 279.77398 633.280362L279.77398 446.0584525C279.77398 394.68935 321.416865 353.0464625 372.78597 353.0464625C424.1550725 353.0464625 465.79796 394.68935 465.79796 446.0584525L465.79796 633.280362C465.79796 684.6494655 424.1550725 726.2923519999999 372.78597 726.2923519999999zM155.75799325 253.6311675C190.00406225 253.6311675 217.7659865 281.48248 217.7659865 315.838815C217.7659865 350.19515 190.00406225 378.0464625 155.75799325 378.0464625C121.51192425 378.0464625 93.75 350.19515 93.75 315.838815C93.75 281.48248 121.51192425 253.6311675 155.75799325 253.6311675zM534.20204 257.7207875000001C528.0810775 257.7207875000001 522.0970675 255.9031425 517.0041175 252.49691L328.993385 126.7528475L328.14948 125.9027825L325.37379 124.5079325000001C316.608695 119.01264 310.7779775 109.245455 310.7779775 98.1120475C310.7779775 88.165535 315.431775 79.309475 322.674095 73.6157949999999L517.0041175 -56.2728175C531.2513425 -65.8015499999999 550.500775 -61.9392675 559.998925 -47.6461674999999C563.394225 -42.5368199999999 565.2060375 -36.5335425 565.2060375 -30.39287L565.2060375 67.0082225L875.2460024999999 67.0082225C892.3690375 67.0082225 906.25 80.9338800000001 906.25 98.1120475C906.25 115.290215 892.3690375 129.21587 875.2460024999999 129.21587L565.2060375 129.21587L565.2060375 226.6169650000001C565.2060375 243.7951325 551.325075 257.7207875000001 534.20204 257.7207875000001z" />
    <glyph glyph-name="jiechusuoding"
      unicode="&#xE678;"
      horiz-adv-x="1000" d="M775 776C871.64983 776 950 697.64983125 950 601L950 476L875 476L875 601C875 654.5548847499999 832.9007875 698.276972 779.9910075 700.87761725L775 701L625 701C569.771525 701 525 656.228475 525 601L525 501L775 501C816.421355 501 850 467.4213550000001 850 426L850 51C850 9.5786450000001 816.421355 -24 775 -24L125 -24C83.57864375 -24 50 9.5786450000001 50 51L50 426C50 467.4213550000001 83.57864375 501 125 501L450 501L450 601C450 697.64983125 528.35017 776 625 776L775 776zM775 426L125 426L125 51L775 51L775 426zM450 326C470.7106775 326 487.5 309.2106775 487.5 288.5L487.5 188.5C487.5 167.7893225 470.7106775 151 450 151C429.2893225000001 151 412.5 167.7893225 412.5 188.5L412.5 288.5C412.5 309.2106775 429.2893225000001 326 450 326z" />
    <glyph glyph-name="jingezhongfenlei"
      unicode="&#xE679;"
      horiz-adv-x="1000" d="M712.5 788.5C822.95695 788.5 912.5 698.95695 912.5 588.5C912.5 478.04305 822.95695 388.5 712.5 388.5C602.04305 388.5 512.5 478.04305 512.5 588.5C512.5 698.95695 602.04305 788.5 712.5 788.5zM712.5 713.5C643.4644075 713.5 587.5 657.53559375 587.5 588.5C587.5 519.4644075 643.4644075 463.5 712.5 463.5C781.5355925 463.5 837.5 519.4644075 837.5 588.5C837.5 657.53559375 781.5355925 713.5 712.5 713.5zM825 351C866.421355 351 900 317.4213550000001 900 276L900 51C900 9.5786450000001 866.421355 -24 825 -24L600 -24C558.5786449999999 -24 525 9.5786450000001 525 51L525 276C525 317.4213550000001 558.5786449999999 351 600 351L825 351zM825 276L600 276L600 51L825 51L825 276zM400 351C441.4213550000001 351 475 317.4213550000001 475 276L475 51C475 9.5786450000001 441.4213550000001 -24 400 -24L175 -24C133.57864375 -24 100 9.5786450000001 100 51L100 276C100 317.4213550000001 133.57864375 351 175 351L400 351zM400 276L175 276L175 51L400 51L400 276zM400 776C441.4213550000001 776 475 742.42135625 475 701L475 476C475 434.578645 441.4213550000001 401 400 401L175 401C133.57864375 401 100 434.578645 100 476L100 701C100 742.42135625 133.57864375 776 175 776L400 776zM400 701L175 701L175 476L400 476L400 701z" />
    <glyph glyph-name="liancha"
      unicode="&#xE67A;"
      horiz-adv-x="1000" d="M825 776C866.421355 776 900 742.42135625 900 701L900 251C900 209.578645 866.421355 176 825 176L700 176L700 51C700 9.5786450000001 666.4213550000001 -24 625 -24L175 -24C133.57864375 -24 100 9.5786450000001 100 51L100 501C100 542.421355 133.57864375 576 175 576L300 576L300 701C300 742.42135625 333.578645 776 375 776L825 776zM625 501L175 501L175 51L625 51L625 501zM561.3390224999999 417.4473850000001C577.3262199999999 404.2814550000001 579.6133125 380.6481775000001 566.447385 364.6609775L391.447385 152.1609775000001C377.37407 135.071955 351.637455 133.8295375 335.983495 149.483495L235.98349575 249.483495C221.33883475 264.1281575000001 221.33883475 287.8718425 235.98349575 302.5165050000001C250.6281575 317.161165 274.3718425 317.161165 289.016505 302.5165050000001L359.8 231.725L508.5526149999999 412.3390225C521.718545 428.32622 545.3518225 430.6133125 561.3390224999999 417.4473850000001zM825 701L375 701L375 576L625 576C666.4213550000001 576 700 542.421355 700 501L700 251L825 251L825 701z" />
    <glyph glyph-name="liekuan2"
      unicode="&#xE6B8;"
      horiz-adv-x="1000" d="M487.5 413.5C473.6928825 413.5 462.5 402.3071175 462.5 388.5L462.5 363.5C462.5 350.679105 472.151005 340.11232 484.5844725 338.6681925000001L487.5 338.5L512.5 338.5C526.3071175 338.5 537.5 349.6928825 537.5 363.5L537.5 388.5C537.5 402.3071175 526.3071175 413.5 512.5 413.5L487.5 413.5zM125 788.5C104.2893225 788.5 87.5 771.710678 87.5 751L87.5 1C87.5 -19.7106775 104.2893225 -36.5 125 -36.5C145.7106775 -36.5 162.5 -19.7106775 162.5 1L162.5 751C162.5 771.710678 145.7106775 788.5 125 788.5zM875 788.5C854.289322 788.5 837.5 771.710678 837.5 751L837.5 1C837.5 -19.7106775 854.289322 -36.5 875 -36.5C895.710678 -36.5 912.5 -19.7106775 912.5 1L912.5 751C912.5 771.710678 895.710678 788.5 875 788.5zM387.5 413.5L362.5 413.5C348.6928825 413.5 337.5 402.3071175 337.5 388.5L337.5 363.5C337.5 349.6928825 348.6928825 338.5 362.5 338.5L387.5 338.5C401.3071175 338.5 412.5 349.6928825 412.5 363.5L412.5 388.5C412.5 402.3071175 401.3071175 413.5 387.5 413.5zM262.5 413.5L237.5 413.5C223.6928825 413.5 212.5 402.3071175 212.5 388.5L212.5 363.5C212.5 349.6928825 223.6928825 338.5 237.5 338.5L262.5 338.5C276.3071175 338.5 287.5 349.6928825 287.5 363.5L287.5 388.5C287.5 402.3071175 276.3071175 413.5 262.5 413.5zM637.5 413.5L612.5 413.5C598.6928825 413.5 587.5 402.3071175 587.5 388.5L587.5 363.5C587.5 349.6928825 598.6928825 338.5 612.5 338.5L637.5 338.5C651.3071175 338.5 662.5 349.6928825 662.5 363.5L662.5 388.5C662.5 402.3071175 651.3071175 413.5 637.5 413.5zM762.5 413.5L737.5 413.5C723.6928825 413.5 712.5 402.3071175 712.5 388.5L712.5 363.5C712.5 349.6928825 723.6928825 338.5 737.5 338.5L762.5 338.5C776.30711875 338.5 787.5 349.6928825 787.5 363.5L787.5 388.5C787.5 402.3071175 776.30711875 413.5 762.5 413.5z" />
    <glyph glyph-name="liekuanzishiying"
      unicode="&#xE67B;"
      horiz-adv-x="1000" d="M825 776C866.421355 776 900 742.42135625 900 701L900 51C900 9.5786450000001 866.421355 -24 825 -24L175 -24C133.57864375 -24 100 9.5786450000001 100 51L100 701C100 742.42135625 133.57864375 776 175 776L825 776zM825 701L175 701L175 51L825 51L825 701zM601.88447 508.5825225C616.52913 523.2271825 640.2728175 523.2271825 654.9174775 508.5825225L760.983495 402.5165050000001C775.6281575 387.8718425 775.6281575 364.1281575 760.983495 349.483495L654.9174775 243.4174775C640.2728175 228.7728175 616.52913 228.7728175 601.88447 243.4174775C587.23981 258.06214 587.23981 281.8058250000001 601.88447 296.4504875L643.9 338.5L356.075 338.5L398.1155300000001 296.4504875C412.76019 281.8058250000001 412.76019 258.06214 398.1155300000001 243.4174775C383.47087 228.7728175 359.7271825000001 228.7728175 345.0825225 243.4174775L239.01650425 349.483495C224.37184325 364.1281575 224.37184325 387.8718425 239.01650425 402.5165050000001L345.0825225 508.5825225C359.7271825000001 523.2271825 383.47087 523.2271825 398.1155300000001 508.5825225C412.76019 493.93786 412.76019 470.194175 398.1155300000001 455.5495125L356.05 413.5L643.9250000000001 413.5L601.88447 455.5495125C588.1551 469.2788825 587.297015 491.0054425 599.3102125 505.73446L601.88447 508.5825225z" />
    <glyph glyph-name="paixu"
      unicode="&#xE6A9;"
      horiz-adv-x="1000" d="M712.5 776C691.7893225 776 675 759.210678 675 738.5L675.024025 107.0500000000001L579.9174775 202.1485375000001C566.18811 215.8779075 544.4615475 216.735995 529.73253 204.722795L526.88447 202.1485375000001C512.23981 187.5038775000001 512.23981 163.76019 526.88447 149.11553L678.67823 -2.7168975C684.72629 -15.30779 697.5980575 -24 712.5 -24C727.4019425 -24 740.27371 -15.30779 746.32177 -2.7168975L898.1155299999999 149.11553C912.76019 163.76019 912.76019 187.5038775000001 898.1155299999999 202.1485375000001C883.47087 216.7932 859.7271825 216.7932 845.0825225000001 202.1485375000001L750.024025 107.0749999999999L750 738.5C750 759.210678 733.2106775 776 712.5 776zM287.5 -24C308.2106775000001 -24 325 -7.2106775 325 13.5L324.975975 644.95L420.0825225 549.8514625C433.81189 536.1220925 455.5384525 535.264005 470.26747 547.277205L473.11553 549.8514625C487.76019 564.4961225 487.76019 588.23981 473.11553 602.88447L321.32177 754.71689825C315.27371 767.307789 302.4019425 776 287.5 776C272.5980575 776 259.72629 767.307789 253.67823 754.71689825L101.88447 602.88447C87.239809 588.23981 87.239809 564.4961225 101.88447 549.8514625C116.529131 535.2067999999999 140.2728175 535.2067999999999 154.9174785 549.8514625L249.9759742500001 644.925L250 13.5C250 -7.2106775 266.7893225 -24 287.5 -24z" />
    <glyph glyph-name="paixu2"
      unicode="&#xE6B2;"
      horiz-adv-x="1000" d="M712.5 776C691.7893225 776 675 759.210678 675 738.5L675.024025 107.0500000000001L579.9174775 202.1485375000001C566.18811 215.8779075 544.4615475 216.735995 529.73253 204.722795L526.88447 202.1485375000001C512.23981 187.5038775000001 512.23981 163.76019 526.88447 149.11553L678.67823 -2.7168975C684.72629 -15.30779 697.5980575 -24 712.5 -24C727.4019425 -24 740.27371 -15.30779 746.32177 -2.7168975L898.1155299999999 149.11553C912.76019 163.76019 912.76019 187.5038775000001 898.1155299999999 202.1485375000001C883.47087 216.7932 859.7271825 216.7932 845.0825225000001 202.1485375000001L750.024025 107.0749999999999L750 738.5C750 759.210678 733.2106775 776 712.5 776zM487.5 776L487.5 -24L74.09769025 -24L322.3735525 776L487.5 776zM412.5 226L230.19769025 226L175.875 51L412.5 51L412.5 226zM412.4976900000001 451L300.02269 451L253.47269 301L412.4976900000001 301L412.4976900000001 451zM412.5 701L377.6 701L323.29769 526L412.4976900000001 526L412.5 701z" />
    <glyph glyph-name="qianfenwei"
      unicode="&#xE67C;"
      horiz-adv-x="1000" d="M710.938 473.5700625C710.938 592.2498875 614.8597625 688.5 496.094 688.5C377.5001125 688.5 281.25 592.2498875 281.25 473.5700625C281.25 354.8902375 377.5001125 258.640125 496.094 258.640125C510.01589 258.640125 523.4221575 260.27294 536.57061 262.76513C500.1330675 157.2337575 417.9767225 129.3040374999999 313.13285 101.2024425L352.9219575 43.968C659.4613775 98.4524375 714.375505 404.4762325 711.0239375 401.8121675C719.0161350000001 424.413755 710.938 448.3044075 710.938 473.5700625z" />
    <glyph glyph-name="qingchu"
      unicode="&#xE67D;"
      horiz-adv-x="1000" d="M654.6796075 795.84465125L919.8446525 530.6796075C956.4563025 494.067955 956.4563025 434.70874 919.8446525 398.0970875L582.10286 60.3971399999999L898.4375 60.375C920.0111225 60.375 937.5 42.8861225000001 937.5 21.3125C937.5 -0.2611225000001 920.0111225 -17.75 898.4375 -17.75L335.9375 -17.75C327.13108 -17.75 319.0053 -14.8358325 312.4718925 -9.91923L312.47786 -11.00911L80.15534875 221.3203925C43.54369625 257.932045 43.54369625 317.2912600000001 80.15534875 353.9029125L522.0970875 795.84465125C558.7087399999999 832.45630375 618.067955 832.45630375 654.6796075 795.84465125zM234.834957 398.0970875L124.3495225 287.6116525L351.57161 60.3971399999999L471.63411 60.3971399999999L522.0970875 110.8349575L234.834957 398.0970875zM588.3883475 751.6504775L290.077675 453.339805L577.339805 166.077675L875.6504775 464.3883475L588.3883475 751.6504775z" />
    <glyph glyph-name="qushucanshushezhi"
      unicode="&#xE67E;"
      horiz-adv-x="1000" d="M750 776C791.4213550000001 776 825 742.42135625 825 701L825 301L750 301L750 701L225 701L225 51L575 51L575 -24L225 -24C183.57864375 -24 150 9.5786450000001 150 51L150 701C150 742.42135625 183.57864375 776 225 776L750 776zM827.3940274999999 274.6255575L873.0516775 247.21954C876.8038750000001 244.9672825 878.4188875 240.36129 876.8948025 236.2589949999999L863.9172275 201.2520425C871.35359 191.2613650000001 877.1971974999999 180.2062075 881.3333975 168.5314550000001L917.3667775 162.6830875C921.7672125 161.96825 925 158.1679275 925 153.7098075L925 98.2901925C925 93.8320725 921.7672125 90.03175 917.3667775 89.3169125000001L881.34738 83.45974C879.055835 77.0265575 876.213355 70.7065074999999 872.8030025 64.5653100000001C870.0979350000001 59.694155 867.1204925 55.0884249999999 863.902225 50.7569074999999L876.8948025 15.741005C878.4188875 11.6387099999999 876.8038750000001 7.0327175 873.0516775 4.7804599999999L827.3940274999999 -22.6255574999999C823.447355 -24.9945475000001 818.35281 -24.0397825 815.53178 -20.4024575L795.144875 5.8409375C781.6294075 2.8344750000001 767.5872525 2.27345 753.678735 4.3418149999999L734.46822 -20.4024575C731.64719 -24.0397825 726.552645 -24.9945475000001 722.6059725 -22.6255574999999L676.9483225 4.7804599999999C673.196125 7.0327175 671.5811125 11.6387099999999 673.1051975 15.741005L683.2323650000001 43.04339C672.4061975 55.34046 664.256315 69.6627225000001 659.03977 85.0127925000001L632.6332225 89.3169125000001C628.2327875 90.03175 625 93.8320725 625 98.2901925L625 153.7098075C625 158.1679275 628.2327875 161.96825 632.6332225 162.6830875L659.0109950000001 166.9610250000001C661.3925175 173.9393974999999 664.4170675 180.7916825 668.1060875000001 187.4346900000001C672.48348 195.31728 677.574115 202.5048250000001 683.24431 208.96008L673.1051975 236.2589949999999C671.5811125 240.36129 673.196125 244.9672825 676.9483225 247.21954L722.6059725 274.6255575C726.552645 276.9945475000001 731.64719 276.0397825 734.46822 272.4024575L753.6771974999999 247.6302225C767.3353675000001 249.6763675 781.3901175 249.254685 795.186405 246.182695L815.53178 272.4024575C818.35281 276.0397825 823.447355 276.9945475000001 827.3940274999999 274.6255575zM775 188.5C740.4822025 188.5 712.5 160.5177975 712.5 126C712.5 91.4822025 740.4822025 63.5 775 63.5C809.5177975 63.5 837.5 91.4822025 837.5 126C837.5 160.5177975 809.5177975 188.5 775 188.5zM487.5 226C508.2106775 226 525 209.2106775 525 188.5C525 167.7893225 508.2106775 151 487.5 151L337.5 151C316.7893225 151 300 167.7893225 300 188.5C300 209.2106775 316.7893225 226 337.5 226L487.5 226zM637.5 426C658.2106775 426 675 409.2106775 675 388.5C675 367.7893225000001 658.2106775 351 637.5 351L337.5 351C316.7893225 351 300 367.7893225000001 300 388.5C300 409.2106775 316.7893225 426 337.5 426L637.5 426zM637.5 601C658.2106775 601 675 584.2106775 675 563.5C675 542.7893225 658.2106775 526 637.5 526L337.5 526C316.7893225 526 300 542.7893225 300 563.5C300 584.2106775 316.7893225 601 337.5 601L637.5 601z" />
    <glyph glyph-name="quxiaodongjie"
      unicode="&#xE67F;"
      horiz-adv-x="1000" d="M825 776C866.421355 776 900 742.42135625 900 701L900 51C900 9.5786450000001 866.421355 -24 825 -24L175 -24C133.57864375 -24 100 9.5786450000001 100 51L100 701C100 742.42135625 133.57864375 776 175 776L825 776zM462.5 338.5L175 338.5L175 51L462.5 51L462.5 338.5zM825 338.5L537.5 338.5L537.5 51L825 51L825 338.5zM462.5 701L175 701L175 413.5L462.5 413.5L462.5 701zM825 701L537.5 701L537.5 413.5L825 413.5L825 701z" />
    <glyph glyph-name="shaixuan"
      unicode="&#xE680;"
      horiz-adv-x="1000" d="M814.64466 751L185.355339 751C168.7793085 751 152.882189 744.4151975 141.16116525 732.69417375L138.11596175 729.4270425C116.7995365 704.873959 117.81460425 667.652387 141.16116525 644.30582625L362.5 422.975L362.5 163.5C362.5 153.9474525000001 366.14552 144.7549899999999 372.6925 137.798825L529.4875000000001 -28.795865C541.2984749999999 -41.345025 557.766875 -48.46057 575 -48.46057L579.1093925 -48.3276274999999C611.7116024999999 -46.2115375 637.5 -19.097655 637.5 14.03943L637.5 423L858.838835 644.30582625C870.5598575 656.02684975 877.14466 671.9239695 877.14466 688.5C877.14466 723.01779675 849.1624575 751 814.64466 751zM784.45 676L573.483495 465.0165050000001L570.9924199999999 462.2659200000001C565.525 455.5929575 562.5 447.2024150000001 562.5 438.5L562.5 45.575L437.5 178.375L437.5 438.5L437.3165 442.206415C436.4641275 450.791035 432.6700425 458.8629675 426.5165050000001 465.0165050000001L215.525 676L784.45 676z" />
    <glyph glyph-name="shanchudanyuange"
      unicode="&#xE681;"
      horiz-adv-x="1000" d="M862.5 76C883.2106775 76 900 59.2106775 900 38.5C900 17.7893225 883.2106775 1 862.5 1L137.5 1C116.789322 1 100 17.7893225 100 38.5C100 59.2106775 116.789322 76 137.5 76L862.5 76zM300.8883475 517.421355C315.5330075 532.0660175 339.276695 532.0660175 353.921355 517.421355C368.5660175000001 502.776695 368.5660175000001 479.0330075 353.921355 464.3883475L265.5250000000001 376L353.921355 287.6116525C368.5660175000001 272.9669925 368.5660175000001 249.223305 353.921355 234.578645C339.276695 219.9339825000001 315.5330075 219.9339825000001 300.8883475 234.578645L212.5 322.975L124.11165225 234.578645C109.4669915 219.9339825000001 85.72330475 219.9339825000001 71.07864375 234.578645C56.43398275 249.223305 56.43398275 272.9669925 71.07864375 287.6116525L159.475 376L71.07864375 464.3883475C56.43398275 479.0330075 56.43398275 502.776695 71.07864375 517.421355C85.72330475 532.0660175 109.4669915 532.0660175 124.11165225 517.421355L212.5 429.025L300.8883475 517.421355zM850 526C877.6142375 526 900 503.6142375 900 476L900 276C900 248.3857625 877.6142375 226 850 226L500 226C472.3857625 226 450 248.3857625 450 276L450 476C450 503.6142375 472.3857625 526 500 526L850 526zM825 451L525 451L525 301L825 301L825 451zM862.5 751C883.2106775 751 900 734.210678 900 713.5C900 692.789322 883.2106775 676 862.5 676L137.5 676C116.789322 676 100 692.789322 100 713.5C100 734.210678 116.789322 751 137.5 751L862.5 751z" />
    <glyph glyph-name="shanchupizhu"
      unicode="&#xE6B6;"
      horiz-adv-x="1000" d="M525 726L525 651L150 651L150 101L743.9339825000001 101L850 207.0660174999999L850 351L925 351L925 207.0660174999999C925 187.17478 917.0982375 168.0982375 903.0330075 154.0330075000001L796.9669925 47.9669924999999C782.9017625 33.9017625 763.8252200000001 26 743.9339825000001 26L150 26C108.57864375 26 75 59.5786450000001 75 101L75 651C75 692.42135625 108.57864375 726 150 726L525 726zM750 326L750 251L250 251L250 326L750 326zM909.099025 747.59902575C923.7436875 732.95436475 923.7436875 709.210678 909.099025 694.56601725L803.0250000000001 588.5075225L909.099025 482.4339825C923.7436875 467.7893225 923.7436875 444.045635 909.099025 429.400975C894.454365 414.7563125 870.7106775 414.7563125 856.0660175 429.400975L750 535.4825225L643.9339825000001 429.400975C629.2893225 414.7563125 605.545635 414.7563125 590.900975 429.400975C576.2563124999999 444.045635 576.2563124999999 467.7893225 590.900975 482.4339825L696.95 588.5075225L590.900975 694.56601725C576.2563124999999 709.210678 576.2563124999999 732.95436475 590.900975 747.59902575C605.545635 762.24368675 629.2893225 762.24368675 643.9339825000001 747.59902575L750 641.5325215L856.0660175 747.59902575C870.7106775 762.24368675 894.454365 762.24368675 909.099025 747.59902575zM450 526L450 451L250 451L250 526L450 526z" />
    <glyph glyph-name="shanchupizhu2"
      unicode="&#xE6BE;"
      horiz-adv-x="1000" d="M500 751L500 676L175 676L175 201L300 201L300 93.05L421.48505 201L825 201L825 351L900 351L900 201C900 159.578645 866.421355 126 825 126L450 126L225 -74L225 126L175 126C133.57864375 126 100 159.578645 100 201L100 676C100 717.42135625 133.57864375 751 175 751L500 751zM904.1815475 765.01650425C918.8262075000002 750.37184325 918.8262075000002 726.62815675 904.1815475 711.98349575L798.1075225 605.925L904.1815475 499.8514625C918.8262075000002 485.2068 918.8262075000002 461.4631125 904.1815475 446.8184525000001C889.5368875 432.1737925 865.7932000000001 432.1737925 851.1485375 446.8184525000001L745.0825225 552.9000000000001L639.016505 446.8184525000001C624.3718425 432.1737925 600.6281575 432.1737925 585.983495 446.8184525000001C571.338835 461.4631125 571.338835 485.2068 585.983495 499.8514625L692.0325225 605.925L585.983495 711.98349575C571.338835 726.62815675 571.338835 750.37184325 585.983495 765.01650425C600.6281575 779.66116525 624.3718425 779.66116525 639.016505 765.01650425L745.0825225 658.95L851.1485375 765.01650425C865.7932000000001 779.66116525 889.5368875 779.66116525 904.1815475 765.01650425z" />
    <glyph glyph-name="shanchuxian"
      unicode="&#xE682;"
      horiz-adv-x="1000" d="M812.4198749999999 426C833.1305524999999 426 849.9198749999999 409.2106775 849.9198749999999 388.5C849.9198749999999 367.7893225000001 833.1305524999999 351 812.4198749999999 351L686.3675199999999 350.9894950000001C692.27355 348.0117375 697.507265 345.140125 702.068665 342.3746625C766.98944 302.34771 800.0000025 246.7547175 800.0000025 174.4838275000001C800.0000025 105.5485175 772.4911999999999 49.9555250000001 717.4735949999999 9.9285725C662.4559899999999 -28.9865225 588.7323974999999 -49 495.2024675 -49C402.77289 -49 330.14965125 -28.9865225 277.33274975 11.0404325C219.72349375 55.7387375 186.15879625 121.81754 176.63865725 210.1854324999999C175.97591375 216.3371550000001 177.0683495 212.7430325 176.63865725 219.111095C175.35074775 238.1979825000001 187.70922575 261.25465 216.97038075 261.25465C246.23153575 261.25465 262.03919 244.839525 264.25594775 225.0000475000001C264.69402425 221.0793625 265.05806775 221.1811350000001 265.60272275 217.3757450000001C274.634444 154.273 298.2917005 107.0502275 335.65141175 76.6401625C371.9630315 47.7318049999999 424.7799325 32.1657674999999 495.2024675 32.1657674999999C559.02289 32.1657674999999 611.8397925 44.3962274999999 651.4524675 68.8571425000001C691.0651449999999 93.3180600000001 710.8714825 126.673855 710.8714825 168.9245275000001C710.8714825 218.95822 684.4630324999999 257.8733150000001 632.7464825 285.6698124999999C610.73944 299.0121300000001 554.6214825 317.9137475 466.5933125 343.4865225C458.7797174999999 345.8734775000001 451.19868 348.385395 443.850825 350.9928725L187.419875 351C166.709196875 351 149.919875 367.7893225000001 149.919875 388.5C149.919875 409.2106775 166.709196875 426 187.419875 426L812.4198749999999 426zM483.098595 801C571.126765 801 641.5493 780.9865229 692.165495 739.847709C739.4832174999999 701.99608225 762.371775 651.2890862500001 772.15265 580.35448725C772.54193 577.53128425 772.83727 575.074427 772.83727 571.82074875C772.83727 553.204124 764.0225825 530.6497575000001 734.5386625 530.6497575000001C705.054745 530.6497575000001 693.5135675 546.960415 690.6155275 563.8797609999999C689.877805 568.1867247499999 689.7493375 568.56391925 689.16005 571.05003625C677.885 618.61772675 657.2465575 654.2473512500001 627.2447225 678.6954177499999C592.033455 707.6037735 542.51761 720.94609175 478.6971875 720.94609175C420.378525 720.94609175 375.2640877500001 712.051213 342.2535245 692.03773575C304.8415525000001 669.800539 286.13556675 636.444744 286.13556675 590.8584905C286.13556675 550.8315375 308.142609 518.5876000000001 353.2570455 494.126685C362.06306425 489.1832875 376.5243855 483.14096 396.54430275 475.9996975L233.929665 475.9773675C208.4800355 506.2009025 195.9066935 543.0121300000001 195.9066935 586.41105125C195.9066935 655.34636125 224.51584825 709.82749325 282.83451025 747.63072775C334.5510595 783.2102426 401.6725375 801 483.098595 801z" />
    <glyph glyph-name="shang3"
      unicode="&#xE6AA;"
      horiz-adv-x="1000" d="M487.5 -49C508.2106775 -49 525 -32.2106775 525 -11.5L524.994905 676.825L759.9514525 441.8839275000001C773.6808225 428.1545575 795.4073825 427.2964725 810.1364025 439.3096700000001L812.9844625000001 441.8839275000001C827.6291225 456.5285875 827.6291225 480.272275 812.9844625000001 494.916935L530.14175 777.75964775C526.3937324999999 781.5076655 522.0497225 784.2964505 517.4147875 786.126003C510.5859425 795.14897575 499.7262625 801 487.5 801C473.6343775 801 461.52638 793.4747085 455.03741 782.28552875C453.12525 780.9676832499999 451.299155 779.46268975 449.5961150000001 777.75964775L166.7534015 494.916935C152.1087405 480.272275 152.1087405 456.5285875 166.7534015 441.8839275000001C181.3980625 427.239265 205.14174925 427.239265 219.78641 441.8839275000001L449.994905 672.1L450 -11.5C450 -32.2106775 466.7893225 -49 487.5 -49z" />
    <glyph glyph-name="shangbiankuang"
      unicode="&#xE683;"
      horiz-adv-x="1000" d="M87.5 113.5L87.5 138.5C87.5 152.3071175 98.69288125 163.5 112.5 163.5L137.5 163.5C151.30711875 163.5 162.5 152.3071175 162.5 138.5L162.5 113.5C162.5 99.69288125 151.30711875 88.5 137.5 88.5L112.5 88.5C98.69288125 88.5 87.5 99.69288125 87.5 113.5zM87.5 -11.5L87.5 13.5C87.5 27.30711875 98.69288125 38.5 112.5 38.5L137.5 38.5C151.30711875 38.5 162.5 27.30711875 162.5 13.5L162.5 -11.5C162.5 -25.30711875 151.30711875 -36.5 137.5 -36.5L112.5 -36.5C98.69288125 -36.5 87.5 -25.30711875 87.5 -11.5zM212.5 -11.5L212.5 13.5C212.5 27.30711875 223.69288125 38.5 237.5 38.5L262.5 38.5C276.3071175 38.5 287.5 27.30711875 287.5 13.5L287.5 -11.5C287.5 -25.30711875 276.3071175 -36.5 262.5 -36.5L237.5 -36.5C223.69288125 -36.5 212.5 -25.30711875 212.5 -11.5zM212.5000000000001 363.5L212.5000000000001 388.5C212.5000000000001 402.3071175 223.69288125 413.5 237.5000000000001 413.5L262.5000000000001 413.5C276.3071175 413.5 287.5000000000001 402.3071175 287.5000000000001 388.5L287.5000000000001 363.5C287.5000000000001 349.6928825 276.3071175 338.5 262.5000000000001 338.5L237.5000000000001 338.5C223.69288125 338.5 212.5000000000001 349.6928825 212.5000000000001 363.5zM337.5 -11.5L337.5 13.5C337.5 27.30711875 348.6928825 38.5 362.5 38.5L387.5 38.5C401.3071175 38.5 412.5 27.30711875 412.5 13.5L412.5 -11.5C412.5 -25.30711875 401.3071175 -36.5 387.5 -36.5L362.5 -36.5C348.6928825 -36.5 337.5 -25.30711875 337.5 -11.5zM337.5000000000001 363.5L337.5000000000001 388.5C337.5000000000001 402.3071175 348.6928825000001 413.5 362.5000000000001 413.5L387.5000000000001 413.5C401.3071175 413.5 412.5 402.3071175 412.5 388.5L412.5 363.5C412.5 349.6928825 401.3071175 338.5 387.5000000000001 338.5L362.5000000000001 338.5C348.6928825000001 338.5 337.5000000000001 349.6928825 337.5000000000001 363.5zM462.5 -11.5L462.5 13.5C462.5 27.30711875 473.6928825 38.5 487.5 38.5L512.5 38.5C526.3071175 38.5 537.5 27.30711875 537.5 13.5L537.5 -11.5C537.5 -25.30711875 526.3071175 -36.5 512.5 -36.5L487.5 -36.5C473.6928825 -36.5 462.5 -25.30711875 462.5 -11.5zM462.5 388.5C462.5 402.3071175 473.6928825 413.5 487.5 413.5L512.5 413.5C525.3208950000001 413.5 535.88768 403.848995 537.3318075 391.4155275L537.5 388.5L537.5 363.5C537.5 349.6928825 526.3071175 338.5 512.5 338.5L487.5 338.5C473.6928825 338.5 462.5 349.6928825 462.5 363.5L462.5 388.5zM587.5 -11.5L587.5 13.5C587.5 27.30711875 598.6928825 38.5 612.5 38.5L637.5 38.5C651.3071175 38.5 662.5 27.30711875 662.5 13.5L662.5 -11.5C662.5 -25.30711875 651.3071175 -36.5 637.5 -36.5L612.5 -36.5C598.6928825 -36.5 587.5 -25.30711875 587.5 -11.5zM587.5 363.5L587.5 388.5C587.5 402.3071175 598.6928825 413.5 612.5 413.5L637.5 413.5C651.3071175 413.5 662.5 402.3071175 662.5 388.5L662.5 363.5C662.5 349.6928825 651.3071175 338.5 637.5 338.5L612.5 338.5C598.6928825 338.5 587.5 349.6928825 587.5 363.5zM712.5 -11.5L712.5 13.5C712.5 27.30711875 723.6928825 38.5 737.5 38.5L762.5 38.5C776.3071175 38.5 787.5 27.30711875 787.5 13.5L787.5 -11.5C787.5 -25.30711875 776.3071175 -36.5 762.5 -36.5L737.5 -36.5C723.6928825 -36.5 712.5 -25.30711875 712.5 -11.5zM712.5 363.5L712.5 388.5C712.5 402.3071175 723.6928825 413.5 737.5 413.4999999999999L762.5 413.4999999999999C776.3071175 413.4999999999999 787.5 402.3071175 787.5 388.4999999999999L787.5 363.4999999999999C787.5 349.6928824999999 776.3071175 338.4999999999999 762.5 338.4999999999999L737.5 338.4999999999999C723.6928825 338.5 712.5 349.6928825 712.5 363.5zM837.5 -11.5L837.5 13.5C837.5 27.30711875 848.6928825 38.5 862.5 38.5L887.5 38.5C901.3071175 38.5 912.5 27.30711875 912.5 13.5L912.5 -11.5C912.5 -25.3071187500001 901.3071175 -36.5 887.5 -36.5L862.5 -36.5C848.6928825 -36.5 837.5 -25.3071187500001 837.5 -11.5zM87.5000000000001 751C87.5000000000001 771.7106775 104.2893220000001 788.5 125.0000000000001 788.5L875 788.5C895.7106775 788.5 912.5 771.7106775 912.5 751C912.5 730.2893225 895.7106775 713.5 875 713.5L125.0000000000001 713.5C104.2893220000001 713.5 87.5000000000001 730.2893225 87.5000000000001 751zM87.5 363.5L87.5 388.5C87.5 402.3071175 98.69288125 413.5 112.5 413.5L137.5 413.5C151.30711875 413.5 162.5 402.3071175 162.5 388.5L162.5 363.5C162.5 349.6928825 151.30711875 338.5 137.5 338.5L112.5 338.5C98.69288125 338.5 87.5 349.6928825 87.5 363.5zM837.5 488.4999999999999L837.5 513.4999999999999C837.5 527.3071175 848.6928825 538.4999999999999 862.5 538.4999999999999L887.5 538.4999999999999C901.3071175 538.4999999999999 912.5 527.3071175 912.5 513.4999999999999L912.5 488.4999999999999C912.5 474.6928824999999 901.3071175 463.4999999999999 887.5 463.4999999999999L862.5 463.4999999999999C848.6928825 463.4999999999999 837.5 474.6928824999999 837.5 488.4999999999999zM462.5 488.5L462.5 513.5C462.5 527.3071175 473.6928825 538.5 487.5 538.5L512.5 538.5C526.3071175 538.5 537.5 527.3071175 537.5 513.5L537.5 488.5C537.5 474.6928825 526.3071175 463.5 512.5 463.5L487.5 463.5C473.6928825 463.5 462.5 474.6928825 462.5 488.5zM837.5 363.4999999999999L837.5 388.4999999999999C837.5 402.3071175 848.6928825 413.4999999999999 862.5 413.4999999999999L887.5 413.4999999999999C901.3071175 413.4999999999999 912.5 402.3071175 912.5 388.4999999999999L912.5 363.4999999999999C912.5 349.6928824999999 901.3071175 338.4999999999999 887.5 338.4999999999999L862.5 338.4999999999999C848.6928825 338.4999999999999 837.5 349.6928824999999 837.5 363.4999999999999zM87.5 488.5L87.5 513.5C87.5 527.3071175 98.69288125 538.5 112.5 538.5L137.5000000000001 538.5C151.3071187500001 538.5 162.5000000000001 527.3071175 162.5000000000001 513.5L162.5000000000001 488.5C162.5000000000001 474.6928825 151.3071187500001 463.5 137.5000000000001 463.5L112.5 463.5C98.69288125 463.5 87.5 474.6928825 87.5 488.5zM87.5 613.5L87.5 638.5C87.5 652.3071175 98.69288125 663.5 112.5 663.5L137.5000000000001 663.5C151.3071187500001 663.5 162.5000000000001 652.3071175 162.5000000000001 638.5L162.5000000000001 613.5C162.5000000000001 599.6928825 151.3071187500001 588.5 137.5000000000001 588.5L112.5 588.5C98.69288125 588.5 87.5 599.6928825 87.5 613.5zM837.5 613.4999999999999L837.5 638.4999999999999C837.5 652.3071175 848.6928825 663.4999999999999 862.5 663.4999999999999L887.5 663.4999999999999C901.3071175 663.4999999999999 912.5 652.3071175 912.5 638.4999999999999L912.5 613.4999999999999C912.5 599.6928824999999 901.3071175 588.4999999999999 887.5 588.4999999999999L862.5 588.4999999999999C848.6928825 588.4999999999999 837.5 599.6928824999999 837.5 613.4999999999999zM462.5000000000001 613.5L462.5000000000001 638.5C462.5000000000001 652.3071175 473.6928825000001 663.5 487.5000000000001 663.5L512.5000000000001 663.5C526.3071175000001 663.5 537.5000000000001 652.3071175 537.5000000000001 638.5L537.5000000000001 613.5C537.5 599.6928825 526.3071175 588.5 512.5 588.5L487.5 588.5C473.6928825 588.5 462.5 599.6928825 462.5000000000001 613.5zM87.5 238.5L87.5 263.5C87.5 277.3071175 98.69288125 288.5 112.5 288.5L137.5 288.5C151.30711875 288.5 162.5 277.3071175 162.5 263.5L162.5 238.5C162.5 224.6928825 151.30711875 213.5 137.5 213.5L112.5 213.5C98.69288125 213.5 87.5 224.6928825 87.5 238.5zM837.5 238.5L837.5 263.5C837.5 277.3071174999999 848.6928825 288.4999999999999 862.5 288.4999999999999L887.5 288.4999999999999C901.3071175 288.4999999999999 912.5 277.3071174999999 912.5 263.5L912.5 238.5C912.5 224.6928825 901.3071175 213.5 887.5 213.5L862.5 213.5C848.6928825 213.5 837.5 224.6928825 837.5 238.5zM462.5 238.5L462.5 263.5C462.5 277.3071175 473.6928825 288.5 487.5 288.5L512.5 288.5C526.3071175 288.5 537.5 277.3071175 537.5 263.5L537.5 238.5C537.5 224.6928825 526.3071175 213.5 512.5 213.5L487.5 213.5C473.6928825 213.5 462.5 224.6928825 462.5 238.5zM837.5 113.5L837.5 138.5C837.5 152.3071174999999 848.6928825 163.5 862.5 163.5L887.5 163.5C901.3071175 163.5 912.5 152.3071174999999 912.5 138.5L912.5 113.5C912.5 99.6928812499999 901.3071175 88.5 887.5 88.5L862.5 88.5C848.6928825 88.5 837.5 99.6928812499999 837.5 113.5zM462.5 113.5L462.5 138.5C462.5 152.3071174999999 473.6928825 163.5 487.5 163.5L512.5 163.5C526.3071175 163.5 537.5 152.3071174999999 537.5 138.5L537.5 113.5C537.5 99.6928812499999 526.3071175 88.5 512.5 88.5L487.5 88.5C473.6928825 88.5 462.5 99.6928812499999 462.5 113.5z" />
    <glyph glyph-name="shangxiajuzhong"
      unicode="&#xE684;"
      horiz-adv-x="1000" d="M482.5103774999999 484.4669425C497.8101225 471.9211575 520.5962774999999 473.3835875 534.12353 488.41387L671.62353 638.413869L674.0445375 641.39329275C685.2669925 656.7333530000001 683.26817 678.38478325 668.8361775 691.373577L665.856755 693.794585C650.5166925 705.01703925 628.8652625 703.018217 615.87647 688.586224L537.5 603.4749525L537.500275 794.75C537.500275 815.460678 520.710955 832.25 500.000275 832.25C479.2895975 832.25 462.500275 815.460678 462.500275 794.75L462.5 610.2249525L382.766505 690.01655075L379.918445 692.5908075C365.189425 704.604006 343.462865 703.7459205 329.733495 690.01655075C315.088835 675.37188975 315.088835 651.6282032500001 329.733495 636.98354225L479.7334949999999 486.9835425zM482.5103774999999 292.5330125C497.8101225 305.0787975 520.5962774999999 303.6163675 534.12353 288.5860849999999L671.62353 138.5860849999999L674.0445375 135.60666C685.2669925 120.2666000000001 683.26817 98.61517 668.8361775 85.6263775L665.856755 83.2053675000001C650.5166925 71.9829149999999 628.8652625 73.9817375 615.87647 88.41373L537.5 173.525L537.500275 -17.7500475C537.500275 -38.460725 520.710955 -55.2500475 500.000275 -55.2500475C479.2895975 -55.2500475 462.500275 -38.460725 462.500275 -17.7500475L462.5 166.775L382.766505 86.9834025L379.918445 84.409145C365.189425 72.3959474999999 343.462865 73.2540325000001 329.733495 86.9834025C315.088835 101.6280624999999 315.088835 125.37175 329.733495 140.0164125L479.7334949999999 290.0164125zM162.5 426L837.5 426C858.2106775 426 875 409.2106775 875 388.5C875 367.7893225000001 858.2106775 351 837.5 351L162.5 351C141.789322 351 125 367.7893225000001 125 388.5C125 409.2106775 141.789322 426 162.5 426z" />
    <glyph glyph-name="shengxu"
      unicode="&#xE6B1;"
      horiz-adv-x="1000" d="M712.5 776C733.2106775 776 750 759.210678 750 738.5L749.975975 107.0500000000001L845.0825225000001 202.1485375000001C858.81189 215.8779075 880.5384525 216.735995 895.2674699999999 204.722795L898.1155299999999 202.1485375000001C912.76019 187.5038775000001 912.76019 163.76019 898.1155299999999 149.11553L746.32177 -2.7168975C740.27371 -15.30779 727.4019425 -24 712.5 -24C697.5980575 -24 684.72629 -15.30779 678.67823 -2.7168975L526.88447 149.11553C512.23981 163.76019 512.23981 187.5038775000001 526.88447 202.1485375000001C541.52913 216.7932 565.2728175 216.7932 579.9174775 202.1485375000001L674.975975 107.0749999999999L675 738.5C675 759.210678 691.7893225 776 712.5 776zM324.8776175000001 763.47977875L467.73476 463.4797775C476.638975 444.780925 468.6988525 422.404215 450 413.5C431.3011475 404.595785 408.9244375 412.5359075 400.0202225 431.23476L366.79485 501.00745L204.31985 501.00745L167.09617325 429.9570075000001C158.051562 412.6900225 137.44445475 405.4008575000001 119.75606275 412.6148925L116.4772285 414.1385875000001C98.13105675 423.7484875 91.04890875 446.4113600000001 100.65880825 464.7575325L257.801665 764.75753175C272.1431775000001 792.13678225 311.589245 791.3853605 324.8776175000001 763.47977875zM289.4274900000001 663.5072695L243.59485 576.0074500000001L331.09485 576.0074500000001L289.4274900000001 663.5072695zM412.5 326C445.9089325 326 462.6401875 285.6071775000001 439.0165050000001 261.983495L228 51L425 51C444.4924025 51 460.5112175 36.1277975 462.328335 17.1115000000001L462.5 13.5C462.5 -7.2106775 445.7106775 -24 425 -24L137.5 -24C104.091068 -24 87.3598135 16.3928225 110.98349575 40.0165050000001L321.975 251L137.5 251C118.007597 251 101.988783 265.8722025 100.1716645 284.8885L100 288.5C100 309.2106775 116.789322 326 137.5 326L412.5 326z" />
    <glyph glyph-name="sheweipingheng"
      unicode="&#xE685;"
      horiz-adv-x="1000" d="M150.45511425 356.3109375C159.154839 199.91103 271.7388475 66.6868299999999 427.2296375 33.6362425C583.03517 0.5187525 740.364495 76.8108649999999 811.7207974999999 216.6239949999999C821.1356025 235.0710450000001 843.7220975 242.3931250000001 862.1691475 232.9783225C880.6161975 223.5635175 887.9382775 200.9770225 878.5234750000001 182.5299725C791.838505 12.6823724999999 600.8332174999999 -79.9398825000001 411.6362600000001 -39.7248275000001C302.0418275 -16.4298125 210.0108585 47.8351475000001 150.01064225 134.815L150 126C150 105.2893225 133.210678 88.5 112.5 88.5C91.789322 88.5 75 105.2893225 75 126L75 351C75 353.6067500000001 75.26597675 356.15138 75.77227175 358.6082275C77.8301365 376.38875 92.44280625 390.6419800000001 110.93028175 391.670345C131.60899325 392.820595 149.3048635 376.98965 150.45511425 356.3109375zM655.4139475000001 591.9066825C655.6318575 591.7818 655.8484599999999 591.6546450000001 656.0637175 591.5252399999999C673.1481275 581.2547025 678.6718625 559.0791375 668.4013249999999 541.99473L600.975 429.8941225000001L635.9375 429.89104C657.5111224999999 429.89104 675 412.4021625000001 675 390.82854C675 369.254915 657.5111224999999 351.76604 635.9375 351.76604L531.25 351.7691225L531.25 295.6441225L635.9375 295.6194000000001C657.5111224999999 295.6194000000001 675 278.1305225 675 256.5569000000001C675 234.9832775 657.5111224999999 217.4944000000001 635.9375 217.4944000000001L531.25 217.5191225L531.25 136.9375C531.25 115.3638775000001 513.7611224999999 97.875 492.1875 97.875C470.6138775000001 97.875 453.125 115.3638775000001 453.125 136.9375L453.125 217.5191225L364.0625 217.4944000000001C342.4888775 217.4944000000001 325 234.9832775 325 256.5569000000001C325 278.1305225 342.4888775 295.6194000000001 364.0625 295.6194000000001L453.125 295.6441225L453.125 351.7691225L364.0625 351.76604C342.4888775 351.76604 325 369.254915 325 390.82854C325 412.4021625000001 342.4888775 429.89104 364.0625 429.89104L399 429.8941225000001L331.598675 541.99473C321.3281375000001 559.0791375 326.8518725 581.2547025 343.9362825 591.5252399999999C344.15154 591.6546450000001 344.3681425 591.7818 344.5860525 591.9066825C362.3529475000001 602.0887574999999 385.0002550000001 596.1957975 395.5509775 578.645315L484.975 429.8941225000001L515 429.8941225000001L604.4490225 578.645315C614.999745 596.1957975 637.6470525 602.0887574999999 655.4139475000001 591.9066825zM588.3611975 791.70063225C698.0004375 768.3960925 790.03602 704.09702525 850.0258375 617.10247L850 626C850 646.710678 866.7893225 663.5 887.5 663.5C908.2106775 663.5 925 646.710678 925 626L925 401C925 399.1423475 924.864925 397.31624 924.6040625 395.53097L924.55242 397.4464775C925.585695 376.7615925 909.6549175 359.1555425 888.9700325 358.122265C868.2851449999999 357.0889900000001 850.679095 373.0197675 849.64582 393.704655C841.7943425000001 550.8813150000001 728.960085 685.1398715 572.76782 718.33956225C416.52812 751.5493355 258.797175 674.7347025 187.72633575 534.2688475C178.3761545 515.7889575 155.81542475 508.3878675 137.335536 517.73805C118.855647 527.0882300000001 111.4545565 549.64896 120.80473775 568.12885C207.143929 738.77138675 398.6365025 832.02786075 588.3611975 791.70063225z" />
    <glyph glyph-name="shezhi2"
      unicode="&#xE686;"
      horiz-adv-x="1000" d="M582.437095 774.492571C600.7991925 797.2646932499999 632.31904 804.10796775 658.2888849999999 791.53496275L662.3405375 789.387889L787.6594625 717.0349745C814.3266349999999 701.638675 825.8063925 669.11322475 814.7118150000001 640.38982775L786.8000000000001 568.0878L788.5450225 565.5669325C799.9764575 548.5113625 809.9293325 530.5174575 818.3079775 511.78868L819.1750000000001 509.7878L897.1485550000001 497.6036675C926.1891275 493.0660775 947.9445725 468.98342 949.86234 440.0218825L950 435.852915L950 291.147085C950 260.3544875 927.5720125 234.1499975 897.1500450000001 229.3965675000001L819.1750000000001 217.2378L818.3230275 215.2414249999999C814.9598599999999 207.7585775 811.33548 200.3716875 807.4524425 193.0907325L801.43421 182.25C797.320105 175.1241625 792.9838024999999 168.162965 788.4323325 161.37346L786.775 158.9878L814.71146 86.611095C825.2780625 59.2546000000001 815.3687550000001 28.4503675 791.364945 12.2787625L787.6594625 9.965025L662.3405375 -62.38789C635.673365 -77.7841875 601.76562 -71.4632250000001 582.437535 -47.493115L540.25 4.8627999999999L528.8736025000001 3.3480499999999C505.76464 0.6767674999999 482.4327249999999 0.2269125 459.2062475 2.03023L457.65 2.1877999999999L417.5629050000001 -47.49257C399.2008075 -70.2646924999999 367.68096 -77.1079675000001 341.711115 -64.5349624999999L337.6594625 -62.38789L212.340538 9.965025C185.67336525 25.361325 174.1936065 57.8867750000001 185.28467575 86.601085L204.625 136.7128L198.46986925 144.5736075C182.711646 165.3948125 169.27500775 187.8489125 158.363602 211.5292275000001L154 221.4128L102.851445 229.3963325C73.81087125 233.9339225 52.0554275 258.01658 50.137661 286.9781175000001L50 291.147085L50 435.852915C50 466.6455125 72.427987 492.8500025 102.83972575 497.6018325L154.05 505.6378L155.4797435 509.065705C159.04362025 517.17019 162.912579 525.164575 167.083449 533.0362025L173.56579125 544.75C181.13865675 557.8665875 189.4615605 570.4204225 198.487795 582.3674225L204.65 590.2628L185.2885405 640.3889045C174.7219365 667.7454 184.63124475 698.5496325 208.63505525 714.7212382499999L212.340538 717.0349745L337.6594625 789.387889C364.326635 804.7841882499999 398.2343800000001 798.463226 417.5619675000001 774.493732L457.675 724.7878005L459.1752975000001 724.9223235C482.376695 726.75949625 505.707165 726.3628525 528.846255 723.7174132499999L540.3 722.2378005zM634.1 719.0878005L584.7049875 657.84820375C576.5623825 647.7538835 563.8473525 642.6480905 551.1287775000001 644.149608L547.6634200000001 644.7241465C514.4574675 651.836485 480.2906625000001 652.94299725 446.722425 648.10737325C433.62041 646.2199815 420.49392 651.3800337499999 412.1844775 661.68431375L365.925 719.0878005L259.125 657.4378005L282.6426575000001 596.418455C287.29562 584.3589125000001 285.384365 570.85004 277.7951825 560.6047424999999L275.348975 557.633775C261.3984725 542.35552 249.058134 525.5065725 238.5176965 507.25C229.6233075 491.8444675 222.23648225 475.82802 216.3856275 459.3454675C211.78181075 446.3759675 200.443653 436.9703125000001 186.8469305 434.84142L125.025 425.1628000000001L125.025 301.8628L186.89813725 292.1581025000001C199.2789015 290.2208850000001 209.786118 282.25067 215.043587 271.0523275000001L216.459959 267.5987875C229.29494625 231.2629125 249.26116675 197.8373375 275.3142325 169.3774675000001C284.9274475000001 158.8761775000001 287.7649475 143.8368400000001 282.639005 130.5546825L259.125 69.5878L365.925 7.9378L412.1531575 65.2526775C419.6250725 74.5149574999999 430.9901225 79.6195750000001 442.7304975 79.182185L446.65303 78.8292275C480.242295 74.0218275000001 514.4356525000001 75.24518 547.6195899999999 82.3534275000001C561.456335 85.3173625000001 575.7832525 80.2400225 584.665815 69.2245549999999L634.1 7.9378L740.9 69.5878L709.4805225 150.9489175C705.2291475 161.961865 706.4346425 174.2536200000001 712.564335 184.16867L714.7892125000001 187.3806475C722.6881549999999 197.6045850000001 729.9334625 208.4070775 736.4823025 219.75C744.7194325 234.0171275 751.66402 248.8089725 757.2933375 264.011445C762.01043 276.750365 773.247925 285.9422374999999 786.669215 288.0398675L875.025 301.8628L875 425.1628000000001L786.623935 438.9610600000001C774.4016925000001 440.87053 763.9916825 448.6628375 758.6659424999999 459.6571575L757.22402 463.0488325C747.07628 490.595485 732.79205 516.444475 714.8212550000001 539.654855C706.7812625 550.0389975 704.7593325 563.8724175 709.4909325 576.1232875000001L740.9 657.4378005L634.1 719.0878005zM500 551C596.64983 551 675 472.64983 675 376C675 279.3501700000001 596.64983 201 500 201C403.3501700000001 201 325 279.3501700000001 325 376C325 472.64983 403.3501700000001 551 500 551zM500 476C444.771525 476 400 431.228475 400 376C400 320.771525 444.771525 276 500 276C555.228475 276 600 320.771525 600 376C600 431.228475 555.228475 476 500 476z" />
    <glyph glyph-name="shuzhifangda"
      unicode="&#xE687;"
      horiz-adv-x="1000" d="M825 776C866.421355 776 900 742.42135625 900 701L900 326L825 326L825 701L175 701L175 51L550 51L550 -24L175 -24C133.57864375 -24 100 9.5786450000001 100 51L100 701C100 742.42135625 133.57864375 776 175 776L825 776zM850 251C877.6142375 251 900 228.6142375000001 900 201L900 26C900 -1.6142374999999 877.6142375 -24 850 -24L675 -24C647.3857624999999 -24 625 -1.6142374999999 625 26L625 201C625 228.6142375000001 647.3857624999999 251 675 251L850 251zM825 176L700 176L700 51L825 51L825 176zM462.5 626C483.2106775 626 500 609.2106775 500 588.5C500 567.7893225 483.2106775 551 462.5 551L390.5250000000001 551L576.776695 364.7563125C591.4213550000001 350.1116525 591.4213550000001 326.3679649999999 576.776695 311.723305C562.1320350000001 297.078645 538.3883475 297.078645 523.7436875000001 311.723305L325 510.475L325 413.5C325 392.7893225000001 308.2106775000001 376 287.5 376C266.7893225 376 250 392.7893225000001 250 413.5L250 588.5C250 609.2106775 266.7893225 626 287.5 626L462.5 626z" />
    <glyph glyph-name="shuzhisuoxiao"
      unicode="&#xE688;"
      horiz-adv-x="1000" d="M825 776C866.421355 776 900 742.42135625 900 701L900 326L825 326L825 701L175 701L175 51L550 51L550 -24L175 -24C133.57864375 -24 100 9.5786450000001 100 51L100 701C100 742.42135625 133.57864375 776 175 776L825 776zM850 251C877.6142375 251 900 228.6142375000001 900 201L900 26C900 -1.6142374999999 877.6142375 -24 850 -24L675 -24C647.3857624999999 -24 625 -1.6142374999999 625 26L625 201C625 228.6142375000001 647.3857624999999 251 675 251L850 251zM825 176L700 176L700 51L825 51L825 176zM375.2602 300.7398000000001C354.5495225 300.7398000000001 337.7602 317.5291225000001 337.7602 338.2398000000001C337.7602 358.9504775000001 354.5495225 375.7398000000001 375.2602 375.7398000000001L447.2351999999999 375.7398000000001L260.9835049999999 561.9834875000001C246.3388449999999 576.6281475000001 246.3388449999999 600.3718350000001 260.9835049999999 615.0164950000001C275.6281649999999 629.6611550000001 299.3718525 629.6611550000001 314.0165124999999 615.0164950000001L512.7601999999999 416.2648000000001L512.7601999999999 513.2398000000001C512.7601999999999 533.9504775 529.5495225 550.7398000000001 550.2601999999999 550.7398000000001C570.9708774999999 550.7398000000001 587.7601999999999 533.9504775 587.7601999999999 513.2398000000001L587.7601999999999 338.2398000000001C587.7601999999999 317.5291225000001 570.9708774999999 300.7398000000001 550.2601999999999 300.7398000000001L375.2602 300.7398000000001z" />
    <glyph glyph-name="suoding2"
      unicode="&#xE68D;"
      horiz-adv-x="1000" d="M675 501L675 626C675 679.55488475 632.9007875 723.276972 579.9910075 725.87761725L575 726L425 726C369.771525 726 325 681.228475 325 626L325 501L675 501zM825 426L175 426L175 51L825 51L825 426zM500 326C520.7106775 326 537.5 309.2106775 537.5 288.5L537.5 188.5C537.5 167.7893225 520.7106775 151 500 151C479.2893225 151 462.5 167.7893225 462.5 188.5L462.5 288.5C462.5 309.2106775 479.2893225 326 500 326zM250 626C250 722.64983125 328.35017 801 425 801L575 801C671.64983 801 750 722.64983125 750 626L750 501L825 501C866.421355 501 900 467.4213550000001 900 426L900 51C900 9.5786450000001 866.421355 -24 825 -24L175 -24C133.57864375 -24 100 9.5786450000001 100 51L100 426C100 467.4213550000001 133.57864375 501 175 501L250 501L250 626z" />
    <glyph glyph-name="suofangbili"
      unicode="&#xE689;"
      horiz-adv-x="1000" d="M825 776C866.421355 776 900 742.42135625 900 701L900 51C900 9.5786450000001 866.421355 -24 825 -24L175 -24C133.57864375 -24 100 9.5786450000001 100 51L100 701C100 742.42135625 133.57864375 776 175 776L825 776zM825 701L175 701L175 51L825 51L825 701zM650 351C719.0355925 351 775 295.0355925 775 226C775 156.9644075 719.0355925 101 650 101C580.9644075 101 525 156.9644075 525 226C525 295.0355925 580.9644075 351 650 351zM700.571065 628.5129435C717.656925 615.6276725 721.072315 591.4234475000001 708.2624225 574.3712475L379.2541250000001 136.4037800000001C366.47524 119.3928525 342.325825 115.9621050000001 325.3148975000001 128.74099C308.2290375 141.6262625000001 304.8136475 165.8304875 317.6235375 182.8826875L646.631835 620.850155C659.4107225 637.861082 683.5601375 641.2918295 700.571065 628.5129435zM650 276C622.3857624999999 276 600 253.6142375000001 600 226C600 198.3857625 622.3857624999999 176 650 176C677.6142375000001 176 700 198.3857625 700 226C700 253.6142375000001 677.6142375000001 276 650 276zM350 651C419.0355925000001 651 475 595.0355925 475 526C475 456.9644074999999 419.0355925000001 401 350 401C280.9644075 401 225 456.9644074999999 225 526C225 595.0355925 280.9644075 651 350 651zM350 576C322.3857625 576 300 553.6142375 300 526C300 498.3857625 322.3857625 476 350 476C377.6142375 476 400 498.3857625 400 526C400 553.6142375 377.6142375 576 350 576z" />
    </font>
</defs>
</svg>
